Torrent details for "Criminal (2016) x 1600 (2160p) HDR 5.1 x265 10bit Phun Psyz"

Loading...
Torrent details
Cover
Download
Torrent rating (0 rated)
Controls:
Category:
Language:
English English
Total Size:
2.30 GB
Info Hash:
d8a47078e83fc375790ff7c8fb9d356483284c87
Added By:
Added:  
14-03-2019 19:59
Views:
150
Health:
Seeds:
26
Leechers:
10
Completed:
142

File List : 
Title:
Criminal (2016)
Genre:
Action, Crime, Drama, Mystery, Sci-Fi, Thriller
Runtime:
113 min    -    Rating: 6.3
Director:
Plot:
Bill Pope (Ryan Reynolds) is a CIA agent on a mission in London tracking down a shadowy hacker nicknamed "The Dutchman." When he gets mysteriously ambushed and killed, an experimental procedure is used to transfer his memories into dangerous convict Jericho Stewart (Kevin Costner). When he wakes up with the CIA agent's memories, his mission is to find The Dutchman and make the deal with him before the hacker launches ICBM's and starts World War III. But complications soon arise and the mission turns personal.

Description
www.imdb.com/title/tt3014866/

In a last-ditch effort to stop a diabolical plot, a dead CIA operative's memories, secrets, and skills are implanted into a death-row inmate in hopes that he will complete the operative's mission.

Source: FGT 4K HDR Remux









Format                      : Matroska
Format version              : Version 4
File size                   : 2.30 GiB
Duration                    : 1 h 53 min
Overall bit rate            : 2 902 kb/s
Writing application         : HandBrake 1.2.0 2018121700

Video
ID                          : 1
Format                      : HEVC
Format/Info                 : High Efficiency Video Coding
Format profile              : Main [email protected]@High
Codec ID                    : V_MPEGH/ISO/HEVC
Duration                    : 1 h 53 min
Bit rate                    : 2 524 kb/s
Width                       : 3 840 pixels
Height                      : 1 600 pixels
Display aspect ratio        : 2.40:1
Frame rate mode             : Constant
Frame rate                  : 23.976 (24000/1001) FPS
Color space                 : YUV
Chroma subsampling          : 4:2:0
Bit depth                   : 10 bits
Bits/(Pixel*Frame)          : 0.017
Stream size                 : 2.00 GiB (87%)
Writing library             : x265 2.9:[Windows][GCC 7.1.0][64 bit] 10bit
Color primaries             : BT.2020
Transfer characteristics    : PQ
Matrix coefficients         : BT.2020 non-constant

Audio
ID                          : 2
Format                      : AC-3
Format/Info                 : Audio Coding 3
Commercial name             : Dolby Digital
Codec ID                    : A_AC3
Duration                    : 1 h 53 min
Bit rate mode               : Constant
Bit rate                    : 320 kb/s
Channel(s)                  : 6 channels
Channel layout              : L R C LFE Ls Rs
Sampling rate               : 48.0 kHz
Frame rate                  : 31.250 FPS (1536 SPF)
Bit depth                   : 16 bits
Compression mode            : Lossy
Stream size                 : 260 MiB (11%)
Title                       : Surround
Language                    : English

Text
Language                    : English
Language                    : Spanish
Default                     : No
Forced                      : No

  User comments

No comments have been posted yet.


Post anonymous comment
:) :( :D :P :-) B) 8o :? 8) ;) :-* :-( :| O:-D :-@ :o) brb :warn :help :bad :love :idea :bomb :!


CAPTCHA Image