Torrent details for "Hellboy (2004) (DC) 1080p 5.1 - 2.0 x264 Phun Psyz"    Log in to bookmark

Loading...
Loading...
Torrent details
Cover
Download
Torrent rating (0 rated)
Controls:
Category:
Language:
English English
Total Size:
2.79 GB
Info Hash:
dd9ab5ae8db35b3e3576b358c234d8ac8edfc228
Added By:
Added:  
01-04-2019 15:09
Views:
899
Health:
Seeds:
2
Leechers:
0
Completed:
213

File List (1) : 
Title:
Hellboy (2004)
Genre:
Action, Fantasy, Horror, Sci-Fi
Runtime:
122 min    -    Rating: 6.9
Plot:
At the end of World War II, Nazi officers Karl Ruprecht Kroenen and Ilsa Haupstein start an experiment to raise the forces of hell trough Russian dark mystic Rasputin on a Scottish island, but it's interrupted by an allied commando guided by professor Trevor "Broom" Bruttenholm. He prevents killing the human-demonic half-blood which was accidentally created and raises this 'Hellboy', while rising to head of a secret CIA-linked US agency Bureau of Paranormal Research, which secret studies and uses the to the occult, including supernatural freaks. As 'father' Broom is aging, he hand-picks brilliant, sensitive agent John Myers as new minder-companion, as regular 'warrior' agent Clay can't empathize and lacks flexibility mental. Hellboy is quite a handful, regularly spotted by worried civilians on unauthorized excursions, especially to pyro-telekinetic freak friend Liz in a mental asylum. Johnny, Hellboy and Clay team up on missions against paranormal threats with aquatic-bionic freak Abe Sapien. Their ask proves daunting, as monster Sammael multiplies every time it 'dies', while both Rasputin and the Nazis reemerge, armed for revenge.

Description
www.imdb.com/title/tt000167190/

A demon, raised from infancy after being conjured by and rescued from the Nazis, grows up to become a defender against the forces of darkness.

Source: FGT (BR Director's Cut)









Format                      : MPEG-4
Format profile              : Base Media / Version 2
Codec ID                    : mp42 (isom/iso2/avc1/mp41)
File size                   : 2.79 GiB
Duration                    : 2 h 12 min
Overall bit rate mode       : Variable
Overall bit rate            : 3 016 kb/s
Writing application         : HandBrake 1.2.0 2018121700

Video
ID                          : 1
Format                      : AVC
Format/Info                 : Advanced Video Codec
Format profile              : High@L4.1
Format settings             : CABAC / 1 Ref Frames
Format settings, CABAC      : Yes
Format settings, ReFrames   : 1 frame
Codec ID                    : avc1
Codec ID/Info               : Advanced Video Coding
Duration                    : 2 h 12 min
Bit rate                    : 2 528 kb/s
Width                       : 1 920 pixels
Height                      : 1 044 pixels
Display aspect ratio        : 1.85:1
Frame rate                  : 23.976 (24000/1001) FPS
Color space                 : YUV
Chroma subsampling          : 4:2:0
Bit depth                   : 8 bits
Scan type                   : Progressive
Bits/(Pixel*Frame)          : 0.053
Stream size                 : 2.34 GiB (84%)
Writing library             : x264 core 157 r2935 545de2f

Audio #1
ID                          : 2
Format                      : AC-3
Format/Info                 : Audio Coding 3
Commercial name             : Dolby Digital
Codec ID                    : ac-3
Duration                    : 2 h 12 min
Bit rate mode               : Constant
Bit rate                    : 320 kb/s
Channel(s)                  : 6 channels
Channel layout              : L R C LFE Ls Rs
Sampling rate               : 48.0 kHz
Frame rate                  : 31.250 FPS (1536 SPF)
Bit depth                   : 16 bits
Compression mode            : Lossy
Stream size                 : 303 MiB (11%)
Title                       : Surround
Language                    : English

Audio #2
ID                          : 3
Format                      : AAC LC
Format/Info                 : Advanced Audio Codec Low Complexity
Codec ID                    : mp4a-40-2
Duration                    : 2 h 12 min
Bit rate mode               : Constant
Bit rate                    : 161 kb/s
Channel(s)                  : 2 channels
Channel layout              : L R
Sampling rate               : 48.0 kHz
Frame rate                  : 46.875 FPS (1024 SPF)
Compression mode            : Lossy
Stream size                 : 152 MiB (5%)
Title                       : Stereo
Language                    : English

Text
Language                    : English
Default                     : Yes
Forced                      : No

  User comments

No comments have been posted yet.


Post anonymous comment
:) :( :D :P :-) B) 8o :? 8) ;) :-* :-( :| O:-D :-@ :facepalm :o) brb :warn :help :bad :love :idea :bomb :!


CAPTCHA Image