Torrent details for "Escape Room 2019 UNCENSORED 1080p WEBRip x264 [MW]"

Loading...
Torrent details
Cover
Download
Torrent rating (0 rated)
Controls:
Category:
Language:
English English
Total Size:
1.68 GB
Info Hash:
06bf2a4cc8d210a81754f65e325445523e8010c0
Added By:
Added:  
06-04-2019 15:24
Views:
525
Health:
Seeds:
49
Leechers:
5
Completed:
3,586

File List : 
Title:
Genre:
Action, Adventure, Drama, Horror, Mystery, Sci-Fi, Thriller
Runtime:
99 min    -    Rating: 6.4
Director:
Plot:
Six strangers are given mysterious black boxes with tickets to an immersive escape room for a chance to win tons of money. Being locked in several rooms with extreme conditions, they discover the secrets behind the escape room and must fight to survive and to find a way out.

Description




General
Format                                   : Matroska
Format version                           : Version 4
File size                                : 1.68 GiB
Duration                                 : 1 h 39 min
Overall bit rate                         : 2 415 kb/s

Video
ID                                       : 1
Format                                   : AVC
Format/Info                              : Advanced Video Codec
Format profile                           : [email protected]
Format settings                          : CABAC / 4 Ref Frames
Format settings, CABAC                   : Yes
Format settings, RefFrames               : 4 frames
Codec ID                                 : V_MPEG4/ISO/AVC
Duration                                 : 1 h 39 min
Bit rate                                 : 2 200 kb/s
Width                                    : 1 920 pixels
Height                                   : 800 pixels
Display aspect ratio                     : 2.40:1
Frame rate mode                          : Constant
Frame rate                               : 25.000 FPS
Color space                              : YUV
Chroma subsampling                       : 4:2:0
Bit depth                                : 8 bits
Scan type                                : Progressive
Bits/(Pixel*Frame)                       : 0.057
Stream size                              : 1.50 GiB (89%)
Writing library                          : x264 core 157 r2935 545de2f

Audio
ID                                       : 2
Format                                   : AAC LC
Codec ID                                 : A_AAC-2
Duration                                 : 1 h 39 min
Bit rate                                 : 256 kb/s
Channel(s)                               : 2 channels
Channel layout                           : L R
Sampling rate                            : 48.0 kHz
Frame rate                               : 46.875 FPS (1024 SPF)
Compression mode                         : Lossy
Stream size                              : 182 MiB (11%)
Language                                 : English
Default                                  : Yes
Forced                                   : No


Click To View Image

https://pichub.site/image/wU1tQ
https://pichub.site/image/wU92v
https://pichub.site/image/wUFk9
https://pichub.site/image/wUHjd
https://pichub.site/image/wUQxu
https://pichub.site/image/wUWTR


  User comments

No comments have been posted yet.


Post anonymous comment
:) :( :D :P :-) B) 8o :? 8) ;) :-* :-( :| O:-D :-@ :o) brb :warn :help :bad :love :idea :bomb :!


CAPTCHA Image