Torrent details for "X-Art.19.04.12.Cornelia.Hot.Breakfast.Sex.XXX.480p.MP4.WOW"

Loading...
Torrent details
Cover
Download
Torrent rating (0 rated)
Controls:
Category:
Language:
English English
Total Size:
384.72 MB
Info Hash:
11976fba1e9c601e15e454af48fd976e6814dba5
Added By:
Added:  
13-04-2019 03:43
Views:
875
Health:
Seeds:
3
Leechers:
3
Completed:
354

File List (1) : 

Description



Snapshot Image 1  

Snapshot Image 2  

Snapshot Image 3  

Snapshot Image 4  

Snapshot Image 5  


Snapshot Image 0  




Video
ID                                       : 1
Format                                   : AVC
Format/Info                              : Advanced Video Codec
Format profile                           : [email protected]
Format settings                          : CABAC / 1 Ref Frames
Format settings, CABAC                   : Yes
Format settings, RefFrames               : 1 frame
Codec ID                                 : avc1
Codec ID/Info                            : Advanced Video Coding
Duration                                 : 24 min 58 s
Bit rate mode                            : Variable
Bit rate                                 : 2 002 kb/s
Maximum bit rate                         : 6 000 kb/s
Width                                    : 800 pixels
Height                                   : 422 pixels
Display aspect ratio                     : 1.896
Frame rate mode                          : Constant
Frame rate                               : 29.970 (29970/1000) FPS
Original frame rate                      : 29.970 (30000/1001) FPS
Color space                              : YUV
Chroma subsampling                       : 4:2:0
Bit depth                                : 8 bits
Scan type                                : Progressive
Bits/(Pixel*Frame)                       : 0.198
Stream size                              : 358 MiB (93%)

Audio
ID                                       : 2
Format                                   : AAC LC
Codec ID                                 : mp4a-40-2
Duration                                 : 24 min 58 s
Bit rate mode                            : Variable
Bit rate                                 : 144 kb/s
Maximum bit rate                         : 160 kb/s
Channel(s)                               : 2 channels
Channel layout                           : L R
Sampling rate                            : 44.1 kHz
Frame rate                               : 43.066 FPS (1024 SPF)
Compression mode                         : Lossy
Stream size                              : 25.9 MiB (7%)
Language                                 : English
Default                                  : Yes



  User comments

No comments have been posted yet.


Post anonymous comment
:) :( :D :P :-) B) 8o :? 8) ;) :-* :-( :| O:-D :-@ :facepalm :o) brb :warn :help :bad :love :idea :bomb :!


CAPTCHA Image