Poll

Story of my life
Slumdog Millionaire
21%

Inception
47%

Titanic
22%

Freaky Friday
10%

Votes: 68


Log in or register
to cast your vote!

  Torrent details for "Rainbow Jelly [2018] Beng. Movie 1080p Vp9 NF-DL x 264 DD 5.1 -Esub By Team Cinemaghar [1ST ON NET..."

Loading...
Torrent details
Cover
Download
Torrent rating (0 rated)
Controls:
Category:
Language:
Bengali Bengali
Total Size:
3.54 GB
Info Hash:
b63044c9f5db8bd9875108b1a2636785bf3b3152
Added By:
Added:  
15-04-2019 14:04 (edited 15-04-2019 17:50) by Bong123:_verified_uploader::_male::_boob:
Views:
69
Health:
Seeds:
8
Leechers:
8
Completed:
11

File List : 
Title:
Genre:
Drama
Runtime:
n/A    -    Rating: 8.5
Plot:
Know what this is about? Be the first one to add a plot.

Description
Rainbow Jelly [2018] Beng. Movie  1080p Vp9 NF-DL x 264 DD 5.1 - Esub   By Team Cinemaghar [1ST ON NET]







1ST ON NET - Xclusive

- By Team Cinemaghar



General
Unique ID                                : 153530053223363122232157703519648038881 (0x7380D00C3B0872D11B84C0646A533FE1)
Complete name                            : H:\Rainbow Jelly [2018] Beng. Movie  1080p Vp9 NF-DL x 264 DD 5.1 By Team Cinemaghar\Rainbow Jelly [2018] Beng. Movie  1080p Vp9 NF-DL x 264 DD 5.1 By Team Cinemaghar.mkv
Format                                   : Matroska
Format version                           : Version 4
File size                                : 3.54 GiB
Duration                                 : 1 h 58 min
Overall bit rate                         : 4 270 kb/s
Movie name                               : Rainbow Jelly [2018] Beng. Movie  1080p Vp9 NF-DL x 264 DD 5.1 By Team Cinemaghar [1ST ON NET]
Encoded date                             : UTC 2019-04-15 12:15:43
Writing application                      : mkvmerge v32.0.0 ('Astral Progressions') 64-bit
Writing library                          : libebml v1.3.7 + libmatroska v1.5.0

Video
ID                                       : 1
Format                                   : AVC
Format/Info                              : Advanced Video Codec
Format profile                           : [email protected]
Format settings                          : CABAC / 3 Ref Frames
Format settings, CABAC                   : Yes
Format settings, RefFrames               : 3 frames
Codec ID                                 : V_MPEG4/ISO/AVC
Duration                                 : 1 h 58 min
Bit rate                                 : 3 884 kb/s
Width                                    : 1 920 pixels
Height                                   : 1 080 pixels
Display aspect ratio                     : 16:9
Frame rate mode                          : Constant
Frame rate                               : 24.000 FPS
Color space                              : YUV
Chroma subsampling                       : 4:2:0
Bit depth                                : 8 bits
Scan type                                : Progressive
Bits/(Pixel*Frame)                       : 0.078
Stream size                              : 3.22 GiB (91%)
Title                                    : Cinemaghar
Language                                 : Bengali
Default                                  : Yes
Forced                                   : No

Audio
ID                                       : 2
Format                                   : AC-3
Format/Info                              : Audio Coding 3
Commercial name                          : Dolby Digital
Codec ID                                 : A_AC3
Duration                                 : 1 h 58 min
Bit rate mode                            : Constant
Bit rate                                 : 384 kb/s
Channel(s)                               : 6 channels
Channel layout                           : L R C LFE Ls Rs
Sampling rate                            : 48.0 kHz
Frame rate                               : 31.250 FPS (1536 SPF)
Bit depth                                : 16 bits
Compression mode                         : Lossy
Stream size                              : 326 MiB (9%)
Title                                    : Cinemaghar DD 5.1 (384 kbps) Aud
Language                                 : Bengali
Service kind                             : Complete Main
Default                                  : Yes
Forced                                   : Yes

Text
ID                                       : 3
Format                                   : UTF-8
Codec ID                                 : S_TEXT/UTF8
Codec ID/Info                            : UTF-8 Plain Text
Duration                                 : 1 h 52 min
Bit rate                                 : 46 b/s
Count of elements                        : 1327
Stream size                              : 38.1 KiB (0%)
Title                                    : Cinemaghar
Language                                 : English
Default                                  : Yes
Forced                                   : Yes











Similar torrents

Name 
DL
Uploader
Size 
S/L 
Added

  User comments

No comments have been posted yet.


Post anonymous comment
:) :( :D :P :-) B) 8o :? 8) ;) :-* :-( :| O:-D :-@ :o) brb :warn :help :bad :love :idea :bomb :!


CAPTCHA Image