Poll

Story of my life
Slumdog Millionaire
24%

Inception
45%

Titanic
21%

Freaky Friday
10%

Votes: 71


Log in or register
to cast your vote!

  Torrent details for "Awara Paagal Deewana (2002) Hindi - 720p WEB-DL - x264 - AC3 2.0 -Sun George (Requested)"

Loading...
Torrent details
Cover
Download
Torrent rating (0 rated)
Controls:
Category:
Language:
Hindi Hindi
Total Size:
1.55 GB
Info Hash:
cb23de6afd0e8f4f55323aae18d74867c451fa13
Added By:
Added:  
15-04-2019 14:12
Views:
64
Health:
Seeds:
28
Leechers:
90
Completed:
121

File List : 
Genre:
Action, Comedy, Crime, Drama, Thriller
Runtime:
158 min    -    Rating: 6.4
Director:
Plot:
Vikrant and Gulab Khatri are brothers-in-law who hate each other, and it is only through Vikrant's dad, who is also a mafia underworld don, that an uneasy peace is maintained. But when he passes away, a vengeful Vikrant frames Gulab in the murder of a politician, forcing Gulab to flee to the United States. Once there, Gulab hopes to re-build his life, but this thought is in vain as his neighbors, the Acharyas, find out about him and the reward offered for his arrest - and create a mini-hell for him - forcing him to show his true colors to them - colors that may well lead to the demise of the entire family.

Description
Awara Paagal Deewana (2002) Hindi - 720p WEB-DL - x264 - AC3  2.0 -Sun George (Requested)





https://www.imdb.com/title/tt0319020/






===================================================================

Source : DTOne (Thanks)

General
Format                                   : Matroska
Format version                           : Version 4
File size                                : 1.53 GiB
Duration                                 : 2 h 34 min
Overall bit rate                         : 1 420 kb/s
Movie name : Awara Paagal Deewana (2002) Hindi - 720p WEB-DL - x264 - AC3  2.0 -Sun George (Requested)

===================================================================

Video
ID                                       : 1
Format                                   : AVC
Format/Info                              : Advanced Video Codec
Format profile                           : [email protected]
Format settings                          : CABAC / 5 Ref Frames
Format settings, CABAC                   : Yes
Format settings, RefFrames               : 5 frames
Codec ID                                 : V_MPEG4/ISO/AVC
Duration                                 : 2 h 34 min
Bit rate                                 : 1 200 kb/s
Width                                    : 1 280 pixels
Height                                   : 544 pixels
Display aspect ratio                     : 2.35:1
Frame rate mode                          : Constant
Frame rate                               : 25.000 FPS
Color space                              : YUV
Chroma subsampling                       : 4:2:0
Bit depth                                : 8 bits
Scan type                                : Progressive
Bits/(Pixel*Frame)                       : 0.069
Stream size                              : 1.29 GiB (84%)
Title                                    : Sun George

===================================================================

Audio
ID                                       : 2
Format                                   : AC-3
Format/Info                              : Audio Coding 3
Commercial name                          : Dolby Digital
Codec ID                                 : A_AC3
Duration                                 : 2 h 34 min
Bit rate mode                            : Constant
Bit rate                                 : 224 kb/s
Channel(s)                               : 2 channels
Channel layout                           : L R
Sampling rate                            : 44.1 kHz
Frame rate                               : 28.711 FPS (1536 SPF)
Bit depth                                : 16 bits
Compression mode                         : Lossy
Stream size                              : 248 MiB (16%)
Title                                    : Sun George
Language                                 : Hindi
Service kind                             : Complete Main
Default                                  : Yes
Forced                                   : No



















My Profile on other Sites:



https://1337x.to/user/Sungeorge/


https://www.ettv.tv/user/sungeorge


https://torrentgalaxy.org/profile/sungeorge


https://hon3yhd.net/account-details.php?id=17451


http://katcr.to/user/sungeorge/


https://movcr.tv/user/sungeorge


https://bwt.pw/account-details.php?id=118

Similar torrents

  No similar torrents were found.

  User comments

No comments have been posted yet.


Post anonymous comment
:) :( :D :P :-) B) 8o :? 8) ;) :-* :-( :| O:-D :-@ :o) brb :warn :help :bad :love :idea :bomb :!


CAPTCHA Image