Torrent details for "The.Curse.of.La.Llorona.2019.720p.HQ.HDCAM.x264.[Hin(Cleaned)+English].AAC.-.LHDm [First On NET]"    Log in to bookmark

Loading...
Loading...
Torrent details
Cover
Download
Torrent rating (0 rated)
Controls:
Category:
Language:
Hindi Hindi
Total Size:
2.05 GB
Info Hash:
78091aff979c21261dbb5a6cc1976909afb04cd5
Added By:
Added:  
22-04-2019 22:06 (edited 23-04-2019 08:29) by Ange1:_moderator::_female::_sitelover::_sun:
Views:
1,084
Health:
Seeds:
4
Leechers:
11
Completed:
4,254

File List (1) : 
Genre:
Horror, Mystery, Thriller
Runtime:
93 min    -    Rating: 6.1
Plot:
Ignoring the eerie warning of a troubled mother suspected of child endangerment, a social worker and her own small kids are soon drawn into a frightening supernatural realm. Their only hope to survive La Llorona's deadly wrath may be a disillusioned priest and the mysticism he practices to keep evil at bay, on the fringes where fear and faith collide.

Description







General
Unique ID                   : 47106222631254235799675537405589604371 (0x23705416D2AC2C82C0505E28D8A44813)
Complete name               : C:\Users\Administrator\Downloads\Video\[LatestHDmovies.ORg]-The.Curse.of.La.Llorona.2019.720p.HQ.HDCAM.x264.[Hin(Cleaned)+English].AAC.mkv
Format                      : Matroska
Format version              : Version 4
File size                   : 2.05 GiB
Duration                    : 1 h 27 min
Overall bit rate mode       : Variable
Overall bit rate            : 3 362 kb/s
Movie name                  : www.LatestHDmovies.ORg [Birthday Surprise]
Encoded date                : UTC 2019-04-22 15:15:26
Writing application         : mkvmerge v32.0.0 ('Astral Progressions') 32-bit
Writing library             : libebml v1.3.7 + libmatroska v1.5.0

Video
ID                          : 1
Format                      : AVC
Format/Info                 : Advanced Video Codec
Format profile              : High@L3.1
Format settings             : CABAC / 6 Ref Frames
Format settings, CABAC      : Yes
Format settings, ReFrames   : 6 frames
Codec ID                    : V_MPEG4/ISO/AVC
Duration                    : 1 h 27 min
Bit rate mode               : Variable
Bit rate                    : 3 000 kb/s
Maximum bit rate            : 18.0 Mb/s
Width                       : 1 280 pixels
Height                      : 536 pixels
Display aspect ratio        : 2.40:1
Frame rate mode             : Constant
Frame rate                  : 29.970 (30000/1001) FPS
Standard                    : Component
Color space                 : YUV
Chroma subsampling          : 4:2:0
Bit depth                   : 8 bits
Scan type                   : Progressive
Bits/(Pixel*Frame)          : 0.146
Stream size                 : 1.83 GiB (89%)
Title                       : LatestHDmovies.ORg
Writing library             : x264 core 148
Encoding settings           : cabac=1 / ref=6 / deblock=1:0:0 / analyse=0x3:0x113 / me=hex / subme=7 / psy=1 / psy_rd=1.00:0.00 / mixed_ref=1 / me_range=16 / chroma_me=1 / trellis=1 / 8x8dct=1 / cqm=1 / deadzone=21,11 / fast_pskip=1 / chroma_qp_offset=-2 / threads=12 / lookahead_threads=2 / sliced_threads=0 / slices=1 / nr=0 / decimate=1 / interlaced=0 / minigop=0 / stitchable=1 / constrained_intra=0 / bframes=3 / b_pyramid=0 / b_adapt=1 / b_bias=0 / direct=1 / weightb=1 / open_gop=0 / weightp=2 / keyint=250 / keyint_min=25 / scenecut=40 / intra_refresh=0 / rc_lookahead=40 / rc=abr / mbtree=1 / bitrate=3000 / ratetol=1.0 / qcomp=0.60 / qpmin=3 / qpmax=69 / qpstep=4 / vbv_maxrate=18000 / vbv_bufsize=18000 / nal_hrd=vbr / filler=0 / ip_ratio=1.40 / aq=1:1.00
Default                     : Yes
Forced                      : No
Color range                 : Limited
Color primaries             : BT.709
Transfer characteristics    : BT.709
Matrix coefficients         : BT.709

Audio #1
ID                          : 2
Format                      : AAC LC
Format/Info                 : Advanced Audio Codec Low Complexity
Codec ID                    : A_AAC-2
Duration                    : 1 h 27 min
Bit rate                    : 128 kb/s
Channel(s)                  : 2 channels
Channel layout              : L R
Sampling rate               : 48.0 kHz
Frame rate                  : 46.875 FPS (1024 SPF)
Compression mode            : Lossy
Stream size                 : 79.8 MiB (4%)
Title                       : LatestHDmovies.ORg
Language                    : Hindi
Default                     : Yes
Forced                      : No

Audio #2
ID                          : 3
Format                      : AC-3
Format/Info                 : Audio Coding 3
Commercial name             : Dolby Digital
Codec ID                    : A_AC3
Duration                    : 1 h 27 min
Bit rate mode               : Constant
Bit rate                    : 224 kb/s
Channel(s)                  : 2 channels
Channel layout              : L R
Sampling rate               : 48.0 kHz
Frame rate                  : 31.250 FPS (1536 SPF)
Bit depth                   : 16 bits
Compression mode            : Lossy
Stream size                 : 140 MiB (7%)
Title                       : LatestHDmovies.ORg
Language                    : English
Service kind                : Complete Main
Default                     : No
Forced                      : No

Text
ID                          : 4
Format                      : UTF-8
Codec ID                    : S_TEXT/UTF8
Codec ID/Info               : UTF-8 Plain Text
Duration                    : 1 h 2 min
Bit rate                    : 0 b/s
Count of elements           : 2
Stream size                 : 130 Bytes (0%)
Title                       : LatestHDmovies.ORg
Default                     : Yes
Forced                      : No









  User comments

No comments have been posted yet.


Post anonymous comment
:) :( :D :P :-) B) 8o :? 8) ;) :-* :-( :| O:-D :-@ :facepalm :o) brb :warn :help :bad :love :idea :bomb :!


CAPTCHA Image