Torrent details for "Miss Bala - Sola contro tutti (2019).720p.H264.italian.english.Ac3-5.1.sub.ita.eng-MIRCrew"    Log in to bookmark

Loading...
Loading...
Torrent details
Cover
Download
Torrent rating (0 rated)
Controls:
Category:
Language:
English English
Total Size:
2.10 GB
Info Hash:
92732fc0a48163159cbe44a03e4ec09ac123ea41
Added By:
Added:  
09-05-2019 16:20
Views:
988
Health:
Seeds:
16
Leechers:
0
Completed:
7,780

File List (4) : 
Title:
Miss Bala (2019)
Genre:
Action, Drama, Thriller
Runtime:
104 min    -    Rating: 5
Plot:
Gloria finds a power she never knew she had when she is drawn into a dangerous world of cross-border crime. Surviving will require all of her cunning, inventiveness, and strength. Based on...

Description
Miss Bala - Sola contro tutti (2019).720p.H264.italian.english.Ac3-5.1.sub.ita.eng-MIRCrew


NO FOUND ONLY ORIGINAL RELEASE

My release is always in double track audio italian and Original audio
for select it use VLC or dvd player home
not use wmp

Miss Bala - Sola contro tutti (2019)

Quality MIRCrew on HD 720p da  2,1 gb










Titolo originale Miss Bala
Lingua originale inglese
Paese di produzione Stati Uniti d'America, Messico
Anno 2019
Durata 104 minuti
Genere azione, thriller
Regia Catherine Hardwicke
Sceneggiatura Gareth Dunnett-Alcocer



   Gina Rodriguez: Gloria Meyer
   Ismael Cruz Córdova: Lino
   Anthony Mackie: Jimmy
   Aislinn Derbez: Isabel
   Matt Lauria: Brian
   Cristina Rodlo: Suzu
   Ricardo Abarca: Pollo
   Thomas Dekker: Justin



Gloria Meyer, truccatrice latinoamericana di Los Angeles, visita la sua migliore amica Suzu a Tijuana, in Messico. Improvvisamente però, Suzu scompare in un night club. Mentre la cerca, Gloria viene rapita da un cartello locale, per il quale è costretta a riciclare denaro.



Gloria finds a power she never knew she had when she is drawn into a dangerous world of cross-border crime. Surviving will require all of her cunning, inventiveness, and strength.





General
Unique ID                                : 206058555965860398964225885591209861014 (0x9B056F2FCDE0BD719EB2E5BE2D415F96)
Complete name                            : Miss Bala (2019)720p.ita.eng.sub.ita.eng-MIRCrew\Miss Bala (2019)720p.ita.eng.sub.ita.eng-MIRCrew.mkv
Format                                   : Matroska
Format version                           : Version 2
File size                                : 2.10 GiB
Duration                                 : 1h 43mn
Overall bit rate                         : 2 889 Kbps
Movie name                               : MIRCrew
Encoded date                             : UTC 2019-04-29 11:07:51
Writing application                      : mkvmerge v5.8.0 ('No Sleep / Pillow') built on Sep  2 2012 15:37:04
Writing library                          : Lavf54.63.100
COMMENT                                  : mircrew-releases
COPYRIGHT                                : robbyrs

Video
ID                                       : 1
Format                                   : AVC
Format/Info                              : Advanced Video Codec
Format profile                           : Main@L4.1
Format settings, CABAC                   : Yes
Format settings, ReFrames                : 2 frames
Codec ID                                 : V_MPEG4/ISO/AVC
Duration                                 : 1h 43mn
Bit rate                                 : 2 000 Kbps
Width                                    : 1 280 pixels
Height                                   : 528 pixels
Display aspect ratio                     : 2.40:1
Frame rate mode                          : Variable
Frame rate                               : 23.976 fps
Color space                              : YUV
Chroma subsampling                       : 4:2:0
Bit depth                                : 8 bits
Scan type                                : Progressive
Bits/(Pixel*Frame)                       : 0.123
Stream size                              : 1.41 GiB (67%)
Title                                    : MIRCrew
Writing library                          : x264 core 130 r2273
Encoding settings                        : cabac=1 / ref=2 / deblock=1:0:0 / analyse=0x1:0x131 / me=hex / subme=7 / psy=1 / psy_rd=1.00:0.00 / mixed_ref=0 / me_range=16 / chroma_me=1 / trellis=1 / 8x8dct=0 / cqm=0 / deadzone=21,11 / fast_pskip=1 / chroma_qp_offset=-2 / threads=9 / lookahead_threads=1 / sliced_threads=0 / nr=0 / decimate=1 / interlaced=0 / bluray_compat=0 / constrained_intra=0 / bframes=3 / b_pyramid=0 / b_adapt=1 / b_bias=0 / direct=3 / weightb=1 / open_gop=0 / weightp=2 / keyint=230 / keyint_min=23 / scenecut=40 / intra_refresh=0 / rc_lookahead=40 / rc=abr / mbtree=1 / bitrate=2000 / ratetol=1.0 / qcomp=0.60 / qpmin=10 / qpmax=69 / qpstep=4 / vbv_maxrate=24000 / vbv_bufsize=24000 / nal_hrd=none / ip_ratio=1.40 / aq=1:1.00
Language                                 : Italian
Default                                  : Yes
Forced                                   : No
DURATION                                 : 01:43:58.232000000
NUMBER_OF_FRAMES                         : 149568
NUMBER_OF_BYTES                          : 7037767807
_STATISTICS_WRITING_APP                  : mkvmerge v32.0.0 ('Astral Progressions') 64-bit
_STATISTICS_WRITING_DATE_UTC             : 2019-04-29 11:07:51
_STATISTICS_TAGS                         : BPS DURATION NUMBER_OF_FRAMES NUMBER_OF_BYTES

Audio #1
ID                                       : 2
Format                                   : AC-3
Format/Info                              : Audio Coding 3
Mode extension                           : CM (complete main)
Codec ID                                 : A_AC3
Duration                                 : 1h 43mn
Bit rate mode                            : Constant
Bit rate                                 : 448 Kbps
Channel(s)                               : 6 channels
Channel positions                        : Front: L C R, Side: L R, LFE
Sampling rate                            : 48.0 KHz
Bit depth                                : 16 bits
Compression mode                         : Lossy
Delay relative to video                  : -42ms
Stream size                              : 333 MiB (16%)
Title                                    : Ita Ac3 5.1
Language                                 : English
Default                                  : Yes
Forced                                   : No
DURATION                                 : 01:43:58.241000000
NUMBER_OF_FRAMES                         : 584835
NUMBER_OF_BYTES                          : 1730966236
_STATISTICS_WRITING_APP                  : mkvmerge v32.0.0 ('Astral Progressions') 64-bit
_STATISTICS_WRITING_DATE_UTC             : 2019-04-29 11:07:51
_STATISTICS_TAGS                         : BPS DURATION NUMBER_OF_FRAMES NUMBER_OF_BYTES

Audio #2
ID                                       : 3
Format                                   : AC-3
Format/Info                              : Audio Coding 3
Mode extension                           : CM (complete main)
Codec ID                                 : A_AC3
Duration                                 : 1h 43mn
Bit rate mode                            : Constant
Bit rate                                 : 448 Kbps
Channel(s)                               : 6 channels
Channel positions                        : Front: L C R, Side: L R, LFE
Sampling rate                            : 48.0 KHz
Bit depth                                : 16 bits
Compression mode                         : Lossy
Delay relative to video                  : -5ms
Stream size                              : 333 MiB (16%)
Title                                    : Eng Ac3 5.1
Language                                 : English
Default                                  : No
Forced                                   : No

Menu
00:00:00.000                             : :Chapter 01
00:05:31.622                             : :Chapter 02
00:12:15.609                             : :Chapter 03
00:17:39.600                             : :Chapter 04
00:24:00.188                             : :Chapter 05
00:27:02.329                             : :Chapter 06
00:35:19.033                             : :Chapter 07
00:41:09.508                             : :Chapter 08
00:46:20.027                             : :Chapter 09
00:55:58.021                             : :Chapter 10
00:59:22.767                             : :Chapter 11
01:03:48.741                             : :Chapter 12
01:09:17.945                             : :Chapter 13
01:20:28.740                             : :Chapter 14
01:25:28.206                             : :Chapter 15
01:30:06.567                             : :Chapter 16






Similar torrents

  No similar torrents were found.

  User comments

No comments have been posted yet.


Post anonymous comment
:) :( :D :P :-) B) 8o :? 8) ;) :-* :-( :| O:-D :-@ :facepalm :o) brb :warn :help :bad :love :idea :bomb :!


CAPTCHA Image