Torrent details for "MotoE.2019.R02.Austria.Grand.Prix.Race.1080p.WEB.x264-BaNHaMMER"    Log in to bookmark

Loading...
Loading...
Torrent details
Cover
Download
Torrent rating (0 rated)
Controls:
Category:
Language:
English English
Total Size:
1.45 GB
Info Hash:
1945af500a0d1bf4682fb6bd21f0b04eb621b99b
Added By:
Added:  
11-08-2019 21:21
Views:
191
Health:
Seeds:
5
Leechers:
4
Completed:
30

File List (2) : 
Title:
Genre:
Documentary
Runtime:
n/A    -    Rating: n/A
Director:
Plot:
After meeting an 8-year-old cancer patient, Eli Coory felt inspired to ditch his comfortable lifestyle in London and devote himself to a more selfless cause. He has faced countless dangers over the last five years, journeying, solo, around the world on his mission, all the while encountering wonderful people and seeing incredible places. He has documented every day of his journey through film and photographs, helping children with cancer all over the world without any support or sponsors. A London-based journalist, Eli has put hundreds upon thousands of hours, all alone, into making Solo on Moto a documentary project that people can get excited about. He has spent his own money on these efforts, burning through his savings in order to help those whom society has too often overlooked. The result is a one-of-a-kind story.

Description
MotoE.2019.R02.Austria.Grand.Prix.Race.1080p.WEB.x264-BaNHaMMER









Source : MotoGp[dot]com

Quote:

Format                                   : Matroska
Format version                           : Version 4 / Version 2
File size                                : 1.45 GiB
Duration                                 : 39mn 59s
Overall bit rate                         : 5 186 Kbps
Encoded date                             : UTC 2019-08-11 19:46:59
Writing application                      : mkvmerge v8.8.0 ('Wind at my back') 64bit
Writing library                          : libebml v1.3.3 + libmatroska v1.4.4

Video
ID                                       : 1
Format                                   : AVC
Format/Info                              : Advanced Video Codec
Format profile                           : Main@L4.2
Format settings, CABAC                   : Yes
Format settings, ReFrames                : 2 frames
Codec ID                                 : V_MPEG4/ISO/AVC
Duration                                 : 39mn 59s
Bit rate                                 : 5 000 Kbps
Width                                    : 1 912 pixels
Original width                           : 1 920 pixels
Height                                   : 1 088 pixels
Original height                          : 1 080 pixels
Display aspect ratio                     : 16:9
Original display aspect ratio            : 16:9
Frame rate mode                          : Constant
Frame rate                               : 50.000 fps
Color space                              : YUV
Chroma subsampling                       : 4:2:0
Bit depth                                : 8 bits
Scan type                                : Progressive
Bits/(Pixel*Frame)                       : 0.048
Stream size                              : 1.39 GiB (96%)
Writing library                          : x264 core 120 r3284M edda297
Encoding settings                        : cabac=1 / ref=2 / deblock=1:0:0 / analyse=0x1:0x11 / me=hex / subme=4 / psy=1 / psy_rd=1.00:0.00 / mixed_ref=0 / me_range=16 / chroma_me=1 / trellis=1 / 8x8dct=0 / cqm=0 / deadzone=21,11 / fast_pskip=1 / chroma_qp_offset=0 / threads=36 / sliced_threads=0 / nr=0 / decimate=1 / interlaced=0 / bluray_compat=0 / constrained_intra=0 / bframes=0 / weightp=1 / keyint=100 / keyint_min=51 / scenecut=0 / intra_refresh=0 / keytime=0 / rc_lookahead=20 / rc=cbr / mbtree=1 / bitrate=5000 / ratetol=1.0 / qcomp=0.60 / qpmin=10 / qpmax=51 / qpstep=4 / vbv_maxrate=5000 / vbv_bufsize=10000 / nal_hrd=none / ip_ratio=1.40 / aq=1:1.00
Default                                  : Yes
Forced                                   : No

Audio
ID                                       : 2
Format                                   : AAC
Format/Info                              : Advanced Audio Codec
Format profile                           : LC
Codec ID                                 : A_AAC
Duration                                 : 39mn 59s
Bit rate                                 : 192 Kbps
Channel(s)                               : 2 channels
Channel positions                        : Front: L R
Sampling rate                            : 48.0 KHz
Frame rate                               : 46.875 fps (1024 spf)
Compression mode                         : Lossy
Stream size                              : 54.9 MiB (4%)
Default                                  : Yes
Forced                                   : No

  User comments

No comments have been posted yet.


Post anonymous comment
:) :( :D :P :-) B) 8o :? 8) ;) :-* :-( :| O:-D :-@ :facepalm :o) brb :warn :help :bad :love :idea :bomb :!


CAPTCHA Image