Torrent details for "Annabelle Comes Home 2019 1080p HC HDRip x264 ESub [MW]"    Log in to bookmark

Loading...
Loading...
Torrent details
Cover
Download
Torrent rating (0 rated)
Controls:
Category:
Language:
English English
Total Size:
1.71 GB
Info Hash:
3aaf1872bbb2acb1541c00f957fee7662c8ddd07
Added By:
Added:  
18-08-2019 08:58
Views:
1,349
Health:
Seeds:
10
Leechers:
4
Completed:
4,791

File List (1) : 
Genre:
Horror, Mystery, Thriller
Runtime:
106 min    -    Rating: 6.9
Plot:
Determined to keep Annabelle from wreaking more havoc, demonologists Ed and Lorraine Warren bring the possessed doll to the locked artifacts room in their home, placing her "safely" behind sacred glass and enlisting a priest's holy blessing. But an unholy night of horror awaits as Annabelle awakens the evil spirits in the room, who all set their sights on a new target--the Warrens' ten-year-old daughter, Judy, and her friends.

Description




General
Format                                   : Matroska
Format version                           : Version 4
File size                                : 1.71 GiB
Duration                                 : 1 h 41 min
Overall bit rate                         : 2 421 kb/s

Video
ID                                       : 1
Format                                   : AVC
Format/Info                              : Advanced Video Codec
Format profile                           : High@L4.1
Format settings                          : CABAC / 4 Ref Frames
Format settings, CABAC                   : Yes
Format settings, Reference frames        : 4 frames
Codec ID                                 : V_MPEG4/ISO/AVC
Duration                                 : 1 h 39 min
Bit rate                                 : 2 200 kb/s
Width                                    : 1 920 pixels
Height                                   : 800 pixels
Display aspect ratio                     : 2.40:1
Frame rate mode                          : Constant
Frame rate                               : 30.000 FPS
Color space                              : YUV
Chroma subsampling                       : 4:2:0
Bit depth                                : 8 bits
Scan type                                : Progressive
Bits/(Pixel*Frame)                       : 0.048
Stream size                              : 1.53 GiB (89%)
Writing library                          : x264 core 157 r2935 545de2f

Audio
ID                                       : 2
Format                                   : AAC LC
Codec ID                                 : A_AAC-2
Duration                                 : 1 h 39 min
Bit rate                                 : 256 kb/s
Channel(s)                               : 2 channels
Channel layout                           : L R
Sampling rate                            : 48.0 kHz
Frame rate                               : 46.875 FPS (1024 SPF)
Compression mode                         : Lossy
Stream size                              : 183 MiB (10%)
Language                                 : English
Default                                  : Yes
Forced                                   : No

Text #1
ID                                       : 3
Format                                   : UTF-8
Codec ID                                 : S_TEXT/UTF8
Codec ID/Info                            : UTF-8 Plain Text
Duration                                 : 1 h 40 min
Bit rate                                 : 43 b/s
Count of elements                        : 1236
Stream size                              : 32.2 KiB (0%)
Language                                 : English
Default                                  : Yes
Forced                                   : No

Text #2
ID                                       : 4
Format                                   : UTF-8
Codec ID                                 : S_TEXT/UTF8
Codec ID/Info                            : UTF-8 Plain Text
Duration                                 : 1 h 40 min
Bit rate                                 : 34 b/s
Count of elements                        : 956
Stream size                              : 25.3 KiB (0%)
Language                                 : English
Default                                  : No
Forced                                   : No


Click To View Image

https://pichub.site/image/hRYhp
https://pichub.site/image/hRMJ4
https://pichub.site/image/hRaoy
https://pichub.site/image/hRIWb
https://pichub.site/image/hRRV0
https://pichub.site/image/hRSUV


  User comments

No comments have been posted yet.


Post anonymous comment
:) :( :D :P :-) B) 8o :? 8) ;) :-* :-( :| O:-D :-@ :facepalm :o) brb :warn :help :bad :love :idea :bomb :!


CAPTCHA Image