Torrent details for "Crawl.2019.HQ.HDCam.XviD.B4ND1T69"    Log in to bookmark

Loading...
Loading...
Torrent details
Cover
Download
Torrent rating (1 rated)
Controls:
Category:
Language:
English English
Total Size:
1.03 GB
Info Hash:
7c24d4f99efbbecddcfe6a832f94f82bb25947b0
Added By:
Added:  
26-08-2019 17:38
Views:
1,292
Health:
Seeds:
17
Leechers:
6
Completed:
4,304

File List (6) : 
Thanks for rating :
pennywise:_trusted_user::_female::_junkie::_sun: (5),

Title:
Crawl (2019)
Genre:
Action, Adventure, Horror, Thriller
Runtime:
87 min    -    Rating: 7.1
Director:
Plot:
A young woman, while attempting to save her father during a Category 5 hurricane, finds herself trapped in a flooding house and must fight for her life against alligators.

Description
Crawl.2019.HQ.HDCam.XviD.B4ND1T69



Director: Alexandre Aja
Writers: Michael Rasmussen, Shawn Rasmussen
Stars: Kaya Scodelario, Barry Pepper, Morfydd Clark

Plot/Story:
A young woman, while attempting to save her father during a category 5 hurricane, finds herself trapped in a flooding house and must fight for her life against alligators.

Notes:
Clean source, No ads etc, ran a few filters to clean up the image and remove the excess gamma in the background. Blurred any site logo`s that pop-up. Samples included. Enjoy.

General
Complete name               : Crawl.2019.HQ.HDCam.XviD.B4ND1T69.avi
Format                      : AVI
Format/Info                 : Audio Video Interleave
File size                   : 1 005 MiB
Duration                    : 1 h 23 min
Overall bit rate            : 1 691 kb/s
Source                      : SeeHD...thanks
Samples                     : Yes...Included(3)

Video
ID                          : 0
Format                      : MPEG-4 Visual
Format profile              : Advanced Simple@L4
Format settings, BVOP       : 2
Format settings, QPel       : No
Format settings, GMC        : No warppoints
Format settings, Matrix     : Default (H.263)
Codec ID                    : XVID
Codec ID/Hint               : XviD
Duration                    : 1 h 23 min
Bit rate                    : 1 549 kb/s
Width                       : 720 pixels
Height                      : 320 pixels
Display aspect ratio        : 2.25:1
Frame rate                  : 29.970 (30000/1001) FPS
Color space                 : YUV
Chroma subsampling          : 4:2:0
Bit depth                   : 8 bits
Scan type                   : Progressive
Compression mode            : Lossy
Bits/(Pixel*Frame)          : 0.224
Stream size                 : 921 MiB (92%)
Writing library             : XviD 64

Audio
ID                          : 1
Format                      : MPEG Audio
Format version              : Version 1
Format profile              : Layer 3
Mode                        : Joint stereo
Mode extension              : MS Stereo
Codec ID                    : 55
Codec ID/Hint               : MP3
Duration                    : 1 h 23 min
Bit rate mode               : Constant
Bit rate                    : 128 kb/s
Channel(s)                  : 2 channels
Sampling rate               : 48.0 kHz
Compression mode            : Lossy
Stream size                 : 76.1 MiB (8%)
Alignment                   : Aligned on interleaves
Interleave, duration        : 24  ms (0.72 video frame)

Screenshots:










Please Seed For As Long As Possible
Or At Least 1:1 Ratio...Thanks
Enjoy Peeps



Similar torrents

Name 
DL
Uploader
Size 
S/L 
Added
796.66 MB
14,574
[248/31]
24/09/19 06:13
707.57 MB
3,253
[115/37]
24/09/19 07:00
-
3.01 GB
3,637
[114/16]
24/09/19 05:30
-
10.75 GB
336
[87/40]
04/10/19 01:05
-
1.27 GB
1,014
[50/7]
24/09/19 05:27
-
1.75 GB
11,001
[38/4]
17/08/19 15:03

  User comments

Posted: 2019-09-24 14:55:35 (3Wks ago) Report

avatar
Reppoints: 30
Thank you .B4ND1T69 :D

Great version, and thanks for this share. :D:D


Post anonymous comment
:) :( :D :P :-) B) 8o :? 8) ;) :-* :-( :| O:-D :-@ :facepalm :o) brb :warn :help :bad :love :idea :bomb :!


CAPTCHA Image