Torrent details for "The Manchurian Candidate (1962)Mp-4 X264 1080p AAC[DSD]"    Log in to bookmark

Loading...
Loading...
Torrent details
Cover
Download
Torrent rating (0 rated)
Controls:
Category:
Language:
English English
Total Size:
2.56 GB
Info Hash:
59b77f4a740caa472d62c016cabe054a50320b04
Added By:
Added:  
16-09-2019 00:11
Views:
159
Health:
Seeds:
3
Leechers:
0
Completed:
31

File List (1) : 
Genre:
Drama, Thriller
Runtime:
126 min    -    Rating: 7.9
Plot:
Major Ben Marco (Frank Sinatra) is an intelligence officer in the U.S. Army. He served valiantly as a captain in the Korean war and his Sergeant, Raymond Shaw (Laurence Harvey), even won the Medal of Honor. Marco has a major problem however: he has a recurring nightmare, one where two members of his squad are killed by Shaw. He's put on indefinite sick leave and visits Shaw in New York. Shaw for his part has established himself well, despite the misgivings of his domineering mother, Mrs. Eleanor Iselin (Angela Lansbury). She is a red-baiter, accusing anyone who disagrees with her right-wing reactionary views of being a Communist. Raymond hates her, not only for how she's treated him but equally because of his step-father, the ineffectual U.S. Senator John Iselin (James Gregory), who is intent on seeking higher office. When Marco learns that others in his Korean War unit have had nightmares similar to his own, he realizes that something happened to all of them in Korea and that Raymond Shaw is the focal point.

Description

Seedboxed!!



General
Complete name                            : THE_MANCHURIAN_CANDIDATE.mp4
Format                                   : MPEG-4
Format profile                           : Base Media / Version 2
Codec ID                                 : mp42 (mp42/isom/avc1)
File size                                : 2.56 GiB
Duration                                 : 2 h 6 min
Overall bit rate mode                    : Variable
Overall bit rate                         : 2 896 kb/s
Movie name                               : The Manchurian Candidate
Performer                                : John Frankenheimer
Performer/Sorted by                      : John Frankenheimer
Genre                                    : Thriller & Drama
Description                              : Near the end of the Korean War, a platoon of U.S. soldiers is captured by communists and brainwashed. Following the war, the platoon is returned home, and Sergeant Raymond Shaw is lauded as a hero by the rest of his platoon. However, the platoon commander, Captain Bennett Marco, finds himself plagued by strange nightmares and soon races to uncover a terrible plot.
Encoded date                             : UTC 2019-09-15 02:56:54
Tagged date                              : UTC 2019-09-15 08:29:17
Writing application                      : DVDFab 11.0.5.0
Cover                                    : Yes
Title/Sort                               : The Manchurian Candidate
LongDescription                          : Near the end of the Korean War, a platoon of U.S. soldiers is captured by communists and brainwashed. Following the war, the platoon is returned home, and Sergeant Raymond Shaw is lauded as a hero by the rest of his platoon. However, the platoon commander, Captain Bennett Marco, finds himself plagued by strange nightmares and soon races to uncover a terrible plot.

Video
ID                                       : 1
Format                                   : AVC
Format/Info                              : Advanced Video Codec
Format profile                           : Main@L4
Format settings                          : CABAC / 2 Ref Frames
Format settings, CABAC                   : Yes
Format settings, RefFrames               : 2 frames
Format settings, GOP                     : M=1, N=24
Codec ID                                 : avc1
Codec ID/Info                            : Advanced Video Coding
Duration                                 : 2 h 6 min
Bit rate mode                            : Variable
Bit rate                                 : 2 435 kb/s
Maximum bit rate                         : 3 667 kb/s
Width                                    : 1 888 pixels
Height                                   : 1 080 pixels
Display aspect ratio                     : 16:9
Frame rate mode                          : Constant
Frame rate                               : 23.976 (24000/1001) FPS
Color space                              : YUV
Chroma subsampling                       : 4:2:0
Bit depth                                : 8 bits
Scan type                                : Progressive
Bits/(Pixel*Frame)                       : 0.050
Stream size                              : 2.15 GiB (84%)
Encoded date                             : UTC 2019-09-15 02:56:54
Tagged date                              : UTC 2019-09-15 08:29:16
Color primaries                          : BT.709
Transfer characteristics                 : BT.709
Matrix coefficients                      : BT.709
Menus                                    : 4

Audio
ID                                       : 2
Format                                   : AAC
Format/Info                              : Advanced Audio Codec
Format profile                           : LC
Codec ID                                 : mp4a-40-2
Duration                                 : 2 h 6 min
Bit rate mode                            : Variable
Bit rate                                 : 448 kb/s
Maximum bit rate                         : 453 kb/s
Channel(s)                               : 6 channels
Channel positions                        : Front: L C R, Side: L R, LFE
Sampling rate                            : 48.0 kHz
Frame rate                               : 46.875 FPS (1024 SPF)
Compression mode                         : Lossy
Stream size                              : 405 MiB (15%)
Title                                    : English (aac 5.1)
Language                                 : English
Default                                  : Yes
Alternate group                          : 1
Encoded date                             : UTC 2019-09-15 02:56:54
Tagged date                              : UTC 2019-09-15 08:29:16

Text
ID                                       : 3
Format                                   : VobSub
Codec ID                                 : mp4s-E0
Codec ID/Info                            : The same subtitle format used on DVDs
Duration                                 : 2 h 6 min
Bit rate mode                            : Variable
Bit rate                                 : 9 566 b/s
Maximum bit rate                         : 4 249 Mb/s
Stream size                              : 8.64 MiB (0%)
Language                                 : English
Default                                  : Yes
Forced                                   : No
Alternate group                          : 2
Encoded date                             : UTC 2019-09-15 02:56:54
Tagged date                              : UTC 2019-09-15 08:28:42

Similar torrents

  No similar torrents were found.

  User comments

No comments have been posted yet.


Post anonymous comment
:) :( :D :P :-) B) 8o :? 8) ;) :-* :-( :| O:-D :-@ :facepalm :o) brb :warn :help :bad :love :idea :bomb :!


CAPTCHA Image