Torrent details for "NASCAR 2019 MECS South Point 400 Las Vegas HDTV x264 720"    Log in to bookmark

Loading...
Loading...
Torrent details
Cover
Download
Torrent rating (0 rated)
Controls:
Category:
Language:
English English
Total Size:
3.26 GB
Info Hash:
a63519a0ab8ade6f3b040c4537bb6a61bc0aba35
Added By:
HackRF:_trusted_uploader:  
Added:  
16-09-2019 04:43
Views:
138
Health:
Seeds:
7
Leechers:
1
Completed:
290

File List (3) : 

Description
Nascar 2019 Monster Energy Series

*South Point 400
Las Vegas Motor Speedway
Sunday, Sep 15
7:00 PM






General
Complete name                            : NASCAR 2018 MECS Foxwoods Resort Casino 301 New Hampshire  HDTV x264 720.mkv
Format                                   : Matroska
Format version                           : Version 4 / Version 2
File size                                : 3.69 GiB
Duration                                 : 2 h 34 min
Overall bit rate                         : 3 421 kb/s
Encoded date                             : UTC 2018-07-23 00:46:32
Writing application                      : mkvmerge v15.0.0 ('Duel with the Devil') 64-bit
Writing library                          : libebml v1.3.5 + libmatroska v1.4.5

Video
ID                                       : 1
Format                                   : AVC
Format/Info                              : Advanced Video Codec
Format profile                           : High@L3.2
Format settings, CABAC                   : Yes
Format settings, RefFrames               : 5 frames
Codec ID                                 : V_MPEG4/ISO/AVC
Duration                                 : 2 h 34 min
Bit rate                                 : 3 034 kb/s
Width                                    : 1 280 pixels
Height                                   : 720 pixels
Display aspect ratio                     : 16:9
Frame rate mode                          : Constant
Frame rate                               : 59.940 (59940/1000) FPS
Original frame rate                      : 59.940 (60000/1001) FPS
Color space                              : YUV
Chroma subsampling                       : 4:2:0
Bit depth                                : 8 bits
Scan type                                : Progressive
Bits/(Pixel*Frame)                       : 0.055
Stream size                              : 3.27 GiB (89%)
Writing library                          : x264 core 148 r2744 b97ae06
Default                                  : Yes
Forced                                   : No

Audio
ID                                       : 2
Format                                   : AC-3
Format/Info                              : Audio Coding 3
Format settings, Endianness              : Big
Codec ID                                 : A_AC3
Duration                                 : 2 h 34 min
Bit rate mode                            : Constant
Bit rate                                 : 384 kb/s
Channel(s)                               : 6 channels
Channel positions                        : Front: L C R, Side: L R, LFE
Sampling rate                            : 48.0 kHz
Frame rate                               : 31.250 FPS (1536 SPF)
Bit depth                                : 16 bits
Compression mode                         : Lossy
Stream size                              : 424 MiB (11%)
Language                                 : new
Service kind                             : Complete Main
Default                                  : Yes
Forced                                   : No

  User comments

No comments have been posted yet.


Post anonymous comment
:) :( :D :P :-) B) 8o :? 8) ;) :-* :-( :| O:-D :-@ :facepalm :o) brb :warn :help :bad :love :idea :bomb :!


CAPTCHA Image