Torrent details for "Freddie Mercury - Mr Bad Guy (Special Edition) (2019) [24-96]"    Log in to bookmark

Loading...
Loading...
Torrent details
Cover
Download
Torrent rating (1 rated)
Controls:
Category:
Language:
English English
Total Size:
838.58 MB
Info Hash:
109af2f4253d0ac652eb1f3ad30f4513da426331
Added By:
was95:_trusted_uploader::_sun:  
Added:  
10-10-2019 16:47
Views:
225
Health:
Seeds:
2
Leechers:
1
Completed:
89

File List (13) : 
Thanks for rating :
Kendra:_trusted_uploader: (5),


Description


Quality-Lossless
Release-1985
Duration-00:40:41
File Size-879 MB
Genre-Rock
Cover Size-1400px

----------------------------------------------------------------------------------------------
Analyzed: Mr Bad Guy (Special Edition 2019) /  Artist: Freddie Mercury
----------------------------------------------------------------------------------------------
DR Peak RMS Duration Title [codec]
----------------------------------------------------------------------------------------------
DR8 -0.06 dB -9.42 dB 3:41 01 - Let's Turn It On (Special Edition) [flac]
DR7 -0.07 dB -9.07 dB 4:05 02 - Made In Heaven (Special Edition) [flac]
DR7 -0.04 dB -9.00 dB 3:39 03 - I Was Born To Love You (Special Edition) [flac]
DR9 -0.00 dB -10.45 dB 3:29 04 - Foolin' Around (Special Edition) [flac]
DR8 -0.07 dB -10.63 dB 3:33 05 - Your Kind Of Lover (Special Edition) [flac]
DR8 -0.08 dB -11.15 dB 4:09 06 - Mr. Bad Guy (Special Edition) [flac]
DR8 -0.07 dB -9.50 dB 4:08 07 - Man Made Paradise (Special Edition) [flac]
DR7 -0.07 dB -10.54 dB 3:00 08 - There Must Be More To Life Than This (Special Edition) [flac]
DR8 -0.07 dB -10.14 dB 3:23 09 - Living On My Own (Special Edition) [flac]
DR7 -0.06 dB -9.50 dB 3:43 10 - My Love Is Dangerous (Special Edition) [flac]
DR7 -0.05 dB -9.31 dB 3:45 11 - Love Me Like There's No Tomorrow (Special Edition) [flac]
----------------------------------------------------------------------------------------------
Number of files:    11
Official DR value:  DR8

Sampling rate: 96000 Hz
Average bitrate: 2869kbs
Bits per sample: 24 bit

  User comments

No comments have been posted yet.


Post anonymous comment
:) :( :D :P :-) B) 8o :? 8) ;) :-* :-( :| O:-D :-@ :facepalm :o) brb :warn :help :bad :love :idea :bomb :!


CAPTCHA Image