Torrent details for "Marie-Flore - Braquage (2019) Flac"    Log in to bookmark

Loading...
Loading...
Torrent details
Cover
Download
Torrent rating (0 rated)
Controls:
Category:
Language:
English English
Total Size:
244.40 MB
Info Hash:
3b47f13796f8b0e62291b74b532048ba605fa100
Added By:
was95:_trusted_uploader::_sun:  
Added:  
08-11-2019 16:38
Views:
73
Health:
Seeds:
13
Leechers:
10
Completed:
87

File List (14) : 

Description


Quality-Lossless
Release-2019
Duration-00:41:32
File Size-256 MB
Genre-Pop     FRENCH
Cover Size-1200px

----------------------------------------------------------------------------------------------
Analyzed: Braquage /  Artist: Marie-Flore
----------------------------------------------------------------------------------------------
DR Peak RMS Duration Title [codec]
----------------------------------------------------------------------------------------------
DR5 -0.00 dB -8.91 dB 4:13 01 - QCC [flac]
DR5 -0.00 dB -7.88 dB 3:37 02 - Tout ou rien [flac]
DR6 -0.00 dB -10.15 dB 2:54 03 - Braquage [flac]
DR6 -0.00 dB -8.39 dB 2:43 04 - Pas envie [flac]
DR5 -0.00 dB -7.42 dB 3:10 05 - Casse toi [flac]
DR5 -0.00 dB -7.72 dB 3:31 06 - M'en veux pas [flac]
DR7 -0.00 dB -11.74 dB 3:37 07 - Presqu'île [flac]
DR6 -0.00 dB -9.95 dB 3:06 08 - Derrick [flac]
DR7 -0.00 dB -9.84 dB 3:53 09 - Cambre [flac]
DR5 -0.00 dB -8.19 dB 3:25 10 - Partie remise [flac]
DR6 -0.00 dB -10.59 dB 3:58 11 - Sur la pente [flac]
DR9 -0.00 dB -12.45 dB 3:18 12 - Bleu velours [flac]
----------------------------------------------------------------------------------------------
Number of files:    12
Official DR value:  DR6

Sampling rate: 44100 Hz
Average bitrate: 819kbs
Bits per sample: 16 bit

  User comments

No comments have been posted yet.


Post anonymous comment
:) :( :D :P :-) B) 8o :? 8) ;) :-* :-( :| O:-D :-@ :facepalm :o) brb :warn :help :bad :love :idea :bomb :!


CAPTCHA Image