Torrent details for "Marvin Gaye - What's Going On (Live) (Remastered) (2019) [24bit Hi-Res]"    Log in to bookmark

Loading...
Loading...
Torrent details
Cover
Download
Torrent rating (0 rated)
Controls:
Category:
Language:
English English
Total Size:
813.30 MB
Info Hash:
46aabca245478752b8ab877f0a808f49e942ab53
Added By:
was95:_trusted_uploader::_sun:  
Added:  
08-11-2019 16:57
Views:
165
Health:
Seeds:
7
Leechers:
4
Completed:
375

File List (14) : 

Description


Quality-Lossless
Release-1972/2019
Duration-00:41:32
File Size-852 MB
Genre-R&B
Cover Size-1400px

----------------------------------------------------------------------------------------------
Analyzed: What's Going On (Live) (Remastered) /  Artist: Marvin Gaye
----------------------------------------------------------------------------------------------
DR Peak RMS Duration Title [codec]
----------------------------------------------------------------------------------------------
DR10 -0.14 dB -13.01 dB 13:24 01 - Sixties Medley (Live At The Kennedy Center Auditorium, Washington, D.C., 1972) [flac]
DR10 -0.28 dB -12.99 dB 7:33 02 - Right On (Live At The Kennedy Center Auditorium, Washington, D.C., 1972) [flac]
DR10 -0.26 dB -13.85 dB 3:31 03 - Wholy Holy (Live At The Kennedy Center Auditorium, Washington, D.C., 1972) [flac]
DR10 -0.15 dB -13.28 dB 9:06 04 - Inner City Blues (Make Me Wanna Holler) (Live At The Kennedy Center Auditorium, Washington, D.C., 1972) [flac]
DR9 -0.06 dB -12.06 dB 5:41 05 - What's Going On (Live At The Kennedy Center Auditorium, Washington, D.C., 1972) [flac]
DR10 -0.20 dB -12.46 dB 2:54 06 - What's Happening Brother (Live At The Kennedy Center Auditorium, Washington, D.C., 1972) [flac]
DR11 -0.28 dB -13.50 dB 3:49 07 - Flyin' High (In The Friendly Sky) (Live At The Kennedy Center Auditorium, Washington, D.C., 1972) [flac]
DR9 -0.27 dB -12.29 dB 4:20 08 - Save The Children (Live At The Kennedy Center Auditorium, Washington, D.C., 1972) [flac]
DR9 -0.12 dB -9.97 dB 1:43 09 - God Is Love (Live At The Kennedy Center Auditorium, Washington, D.C., 1972) [flac]
DR14 -0.28 dB -17.10 dB 2:33 10 - Stage Dialogue (Live At The Kennedy Center Auditorium, Washington, D.C., 1972) [flac]
DR10 -0.00 dB -13.35 dB 5:09 11 - Inner City Blues (Make Me Wanna Holler) (Reprise / Live At The Kennedy Center Auditorium, Washington, D.C., 1972) [flac]
DR9 -0.00 dB -11.21 dB 4:11 12 - What's Going On (Reprise / Live At The Kennedy Center Auditorium, Washington, D.C., 1972) [flac]
----------------------------------------------------------------------------------------------
Number of files:    12
Official DR value:  DR10

Sampling rate: 48000 Hz
Average bitrate: 1784kbs
Bits per sample: 24 bit

  User comments

No comments have been posted yet.


Post anonymous comment
:) :( :D :P :-) B) 8o :? 8) ;) :-* :-( :| O:-D :-@ :facepalm :o) brb :warn :help :bad :love :idea :bomb :!


CAPTCHA Image