Torrent details for "The.Mandalorian.S01E06.WEB-DL.XviD.B4ND1T69"    Log in to bookmark

Loading...
Loading...
Torrent details
Cover
Download
Torrent rating (0 rated)
Controls:
Category:
Language:
English English
Total Size:
223.50 MB
Info Hash:
1ebce9c347a640b6439018d51a12b7dbf631a2c0
Added By:
Added:  
13-12-2019 19:39
Views:
636
Health:
Seeds:
24
Leechers:
10
Completed:
2,163

File List (4) : 
Title:
Genre:
Action, Adventure, Sci-Fi
Runtime:
60 min    -    Rating: 9.2
Director:
n/A
Plot:
After the stories of Jango and Boba Fett, another warrior emerges in the Star Wars universe. The Mandalorian is set after the fall of the Empire and before the emergence of the First Order. We follow the travails of a lone gunfighter in the outer reaches of the galaxy far from the authority of the New Republic.

Description
The.Mandalorian.S01E06.WEB-DL.XviD.B4ND1T69



Creator: Jon Favreau
Stars: Pedro Pascal, Kyle Pacek, Brendan Wayne

Plot/Story:
Chapter Six: The Prisoner
The Mandalorian joins a crew of mercenaries on a dangerous mission.

General
Complete name               : The.Mandalorian.S01E06.WEB-DL.XviD.B4ND1T69.avi
Format                      : AVI
Format/Info                 : Audio Video Interleave
File size                   : 223 MiB
Duration                    : 43 min 18 s
Overall bit rate            : 721 kb/s
Subtitles                   : Yes...Included(HI)

Video
ID                          : 0
Format                      : MPEG-4 Visual
Format profile              : Advanced Simple@L4
Format settings, BVOP       : 2
Format settings, QPel       : No
Format settings, GMC        : No warppoints
Format settings, Matrix     : Default (H.263)
Codec ID                    : XVID
Codec ID/Hint               : XviD
Duration                    : 43 min 18 s
Bit rate                    : 580 kb/s
Width                       : 640 pixels
Height                      : 272 pixels
Display aspect ratio        : 2.35:1
Frame rate                  : 23.976 (24000/1001) FPS
Color space                 : YUV
Chroma subsampling          : 4:2:0
Bit depth                   : 8 bits
Scan type                   : Progressive
Compression mode            : Lossy
Bits/(Pixel*Frame)          : 0.139
Stream size                 : 180 MiB (80%)
Writing library             : XviD 64

Audio
ID                          : 1
Format                      : MPEG Audio
Format version              : Version 1
Format profile              : Layer 3
Codec ID                    : 55
Codec ID/Hint               : MP3
Duration                    : 43 min 18 s
Bit rate mode               : Constant
Bit rate                    : 128 kb/s
Channel(s)                  : 2 channels
Sampling rate               : 48.0 kHz
Compression mode            : Lossy
Stream size                 : 39.6 MiB (18%)
Alignment                   : Aligned on interleaves
Interleave, duration        : 24  ms (0.58 video frame)

Screenshots:







Please Seed For As Long As Possible
Or At Least 1:1 Ratio...Thanks
Enjoy Peeps

  User comments

Posted: 2019-12-14 09:10:03 (10Wks ago) Report

avatar
Reppoints: 100
Ooohhh Baby, you know what I like and you got what I need....... Thanks :D


Post anonymous comment
:) :( :D :P :-) B) 8o :? 8) ;) :-* :-( :| O:-D :-@ :facepalm :o) brb :warn :help :bad :love :idea :bomb :!


CAPTCHA Image