Torrent details for "Troop Zero 2020 WebRip 1080p Dual Audio Hindi English DDP 5.1 x264 MSubs - mkvCinemas [Telly]"    Log in to bookmark

Loading...
Loading...
Torrent details
Cover
Download
Torrent rating (0 rated)
Controls:
Category:
Language:
English English
Total Size:
3.25 GB
Info Hash:
37e772469184506b47fdc2bad13e17ce75a7032a
Added By:
Added:  
18-01-2020 06:35
Views:
284
Health:
Seeds:
12
Leechers:
2
Completed:
873

File List (1) : 
Title:
Troop Zero (2019)
Genre:
Comedy, Drama, Family
Runtime:
94 min    -    Rating: 7.1
Director:
Plot:
In rural 1977 Georgia, a misfit girl dreams of life in outer space. When a national competition offers her a chance at her dream, to be recorded on NASA's Golden Record, she recruits a makeshift troop of Birdie Scouts, forging friendships that last a lifetime and beyond.

Description






********************************

Troop Zero 2020 WebRip 1080p Dual Audio Hindi English DDP 5.1 x264 MSubs - mkvCinemas [Telly]

********************************

Mediainfo:-
Format                      : Matroska
Format version              : Version 2
File size                   : 3.25 GiB
Duration                    : 1h 37mn
Overall bit rate mode       : Variable
Overall bit rate            : 4 781 Kbps

Video
ID                          : 1
Format                      : AVC
Format/Info                 : Advanced Video Codec
Format profile              : High@L4.1
Format settings, CABAC      : Yes
Format settings, ReFrames   : 4 frames
Muxing mode                 : Header stripping
Codec ID                    : V_MPEG4/ISO/AVC
Duration                    : 1h 37mn
Bit rate mode               : Variable
Bit rate                    : 3 500 Kbps
Maximum bit rate            : 62.5 Mbps
Width                       : 1 920 pixels
Height                      : 800 pixels
Display aspect ratio        : 2.40:1
Frame rate mode             : Constant
Frame rate                  : 23.976 fps
Color space                 : YUV

Audio #1
ID                          : 2
Format                      : E-AC-3
Format/Info                 : Audio Coding 3
Format settings, Endianness : Big
Muxing mode                 : Header stripping
Codec ID                    : A_EAC3
Duration                    : 1h 37mn
Bit rate mode               : Constant
Bit rate                    : 640 Kbps
Channel(s)                  : 6 channels
Channel positions           : Front: L C R, Side: L R, LFE
Sampling rate               : 48.0 KHz
Compression mode            : Lossy
Stream size                 : 446 MiB (13%)
Title                       : mkvCinemas
Language                    : Hindi
Default                     : Yes
Forced                      : Yes

Audio #2
ID                          : 3
Format                      : E-AC-3
Format/Info                 : Audio Coding 3
Format settings, Endianness : Big
Muxing mode                 : Header stripping
Codec ID                    : A_EAC3
Duration                    : 1h 37mn
Bit rate mode               : Constant
Bit rate                    : 640 Kbps
Channel(s)                  : 6 channels
Channel positions           : Front: L C R, Side: L R, LFE
Sampling rate               : 48.0 KHz
Compression mode            : Lossy
Stream size                 : 446 MiB (13%)
Title                       : mkvCinemas
Language                    : English
Default                     : No
Forced                      : No

Subtitles:

Language                    : English
Title                       : Castilian
Title                       : Spanish
Title                       : French
Title                       : Italian
Title                       : Brazilian Portuguese
Title                       : Polish
Title                       : Turkish
Title                       : Swedish
Title                       : Danish
Title                       : Finnish
Title                       : Dutch
Title                       : Russian
Title                       : Arabic
Title                       : Hindi
Title                       : Tamil
Title                       : Telugu
Title                       : Indonesian
Title                       : Thai
Title                       : Korean
Title                       : Chinese (Simplified)
Title                       : Chinese (Traditional)

Menu
00:00:00.000                : en:Studio Logos
00:00:42.000                : en:Opening Credits
00:01:46.000                : en:Intro to Christmas
00:07:26.000                : en:A chat with Miss Raylee
00:09:52.000                : en:Warnings
00:11:50.000                : en:A chance to work with NASA
00:17:57.000                : en:Christmas is determined
00:26:45.000                : en:Welcome to Birdie Scouting
00:32:35.000                : en:Learning new skills
00:41:31.000                : en:Bake a cake badge
00:48:20.000                : en:Surviving the wilderness badge
00:56:43.000                : en:Dashed dreams
01:01:06.000                : en:Renewed hope
01:07:51.000                : en:Arrival at the Jamboree
01:14:01.000                : en:Jamboree performances
01:24:17.000                : en:The winner is announced
01:29:02.000                : en:Be permanent
01:33:11.000                : en:End Credits



********************************

We don't add Watermark or Audio Tags.
Wherever you Share our Stuffs, Give Proper Credit to "mkvCinemas @Team Telly"
We Keep All Torrents. In case of re-seed, please pm.


********************************







********************************



********************************

  User comments

No comments have been posted yet.


Post anonymous comment
:) :( :D :P :-) B) 8o :? 8) ;) :-* :-( :| O:-D :-@ :facepalm :o) brb :warn :help :bad :love :idea :bomb :!


CAPTCHA Image