Torrent details for "Various Artists - Vocal Trance 2020 (2019) Flac"    Log in to bookmark

Loading...
Loading...
Torrent details
Cover
Download
Torrent rating (0 rated)
Controls:
Category:
Language:
English English
Total Size:
2.30 GB
Info Hash:
ecf93ba3bebaa9dc93fe258347fcede6af86dad8
Added By:
was95:_trusted_uploader::_sun:  
Added:  
23-01-2020 11:27
Views:
170
Health:
Seeds:
4
Leechers:
2
Completed:
91

File List (62) : 

Description


Quality-Lossless
Release-2019
Duration-05:03:48
File Size-2.47 GB
Genre-Trance
Cover Size-1200px

----------------------------------------------------------------------------------------------
Analyzed: Vocal Trance 2020 /  Artist: Various Artists
----------------------------------------------------------------------------------------------
DR Peak RMS Duration Title [codec]
----------------------------------------------------------------------------------------------
DR4 -0.10 dB -6.07 dB 3:33 01 - Alice's Door (DRYM Remix) [flac]
DR5 -0.00 dB -6.19 dB 3:29 02 - Eternal [flac]
DR5 -0.30 dB -7.61 dB 4:00 03 - So Good (Vadim Spark Remix) [flac]
DR4 -0.00 dB -6.33 dB 3:24 04 - All Through The Night [flac]
DR5 -0.20 dB -7.43 dB 3:29 05 - Shadow of Myself [flac]
DR5 -0.30 dB -6.87 dB 3:28 06 - Closest Thing To Heaven [flac]
DR5 -0.20 dB -8.31 dB 3:29 07 - Haunted [flac]
DR4 -0.20 dB -6.84 dB 3:20 08 - Crashing Into Love [flac]
DR5 -0.20 dB -8.41 dB 3:04 09 - Where Promises Fade 2020 [flac]
DR4 -0.30 dB -6.27 dB 3:33 10 - Diamond Dancing Sea (Katrin's World Remix) [flac]
DR6 -0.01 dB -7.38 dB 3:28 11 - Breathe [flac]
DR4 -0.30 dB -6.18 dB 3:20 12 - Forever of Light Years [flac]
DR4 -0.30 dB -7.41 dB 3:29 13 - As The Leaves Turn To Brown [flac]
DR6 -0.01 dB -8.89 dB 3:46 14 - Those Summer Days [flac]
DR4 -0.28 dB -6.69 dB 3:28 15 - Idée fixe (Costa Remix) [flac]
DR3 -0.20 dB -5.24 dB 3:31 16 - Belief Without Sight [flac]
DR6 -0.31 dB -7.26 dB 3:33 17 - Star [flac]
DR6 -0.00 dB -9.19 dB 3:35 18 - Lie To My Soul [flac]
DR4 -0.30 dB -7.04 dB 3:31 19 - Something More [flac]
DR5 -0.01 dB -7.49 dB 3:43 20 - Till Oblivion 2019 [flac]
DR4 -0.16 dB -5.67 dB 3:35 21 - Together Alone [flac]
DR4 -0.30 dB -7.07 dB 4:00 22 - Hearts Unspoken (Alex Leavon Remix) [flac]
DR7 -0.52 dB -10.20 dB 3:33 23 - It's A Feeling [flac]
DR3 -0.00 dB -4.88 dB 3:14 24 - Between The Truth & The Lie (Beatsole Remix) [flac]
DR5 -0.50 dB -6.98 dB 3:39 25 - Seven Colours of Sea [flac]
DR6 -0.00 dB -7.13 dB 3:58 26 - Silent For So Long (Ahmed Helmy Remix) [flac]
DR6 -0.21 dB -8.99 dB 3:18 27 - The Sorrow Within [flac]
DR6 -0.00 dB -7.93 dB 3:04 28 - A Silent Hold [flac]
DR6 -0.65 dB -10.02 dB 3:24 29 - Every Time Your Heart Runs Dry [flac]
DR5 -0.10 dB -8.49 dB 3:20 30 - Re-Given (Nikolauss Remix) [flac]
DR4 -0.10 dB -6.13 dB 6:07 31 - Alice's Door (DRYM Extended Mix) [flac]
DR5 -0.03 dB -6.93 dB 5:56 32 - Eternal (Progressive Mix) [flac]
DR5 -0.30 dB -7.49 dB 5:50 33 - So Good (Vadim Spark Extended Mix) [flac]
DR4 -0.00 dB -6.08 dB 5:20 34 - All Through The Night (Extended MIx) [flac]
DR5 -0.20 dB -7.55 dB 7:04 35 - Shadow of Myself (Extended Mix) [flac]
DR5 -0.30 dB -6.24 dB 6:12 36 - Closest Thing To Heaven (Extended Mix) [flac]
DR5 -0.20 dB -7.82 dB 6:56 37 - Haunted (Extended Mix) [flac]
DR5 -0.20 dB -6.45 dB 6:58 38 - Crashing Into Love (Extended Mix) [flac]
DR4 -0.20 dB -7.67 dB 6:16 39 - Where Promises Fade 2020 (Extended Mix) [flac]
DR4 -0.30 dB -6.32 dB 6:37 40 - Diamond Dancing Sea (Katrin's World Extended Mix) [flac]
DR6 -0.01 dB -7.15 dB 7:11 41 - Breathe (Extended Mix) [flac]
DR4 -0.30 dB -7.16 dB 6:12 42 - Forever of Light Years (Extended Mix) [flac]
DR5 -0.30 dB -8.24 dB 6:33 43 - As The Leaves Turn To Brown (Extended Mix) [flac]
DR6 -0.01 dB -10.20 dB 6:24 44 - Those Summer Days (Extended Mix) [flac]
DR4 -0.28 dB -7.10 dB 8:00 45 - Idée fixe (Costa Extended Mix) [flac]
DR3 -0.20 dB -4.93 dB 7:46 46 - Belief Without Sight (Extended Mix) [flac]
DR5 -0.31 dB -8.14 dB 6:15 47 - Star (Extended Mix) [flac]
DR6 -0.00 dB -10.06 dB 5:56 48 - Lie To My Soul (Extended Mix) [flac]
DR4 -0.30 dB -7.56 dB 5:37 49 - Something More (Extended Mix) [flac]
DR5 -0.01 dB -7.76 dB 6:23 50 - Till Oblivion 2019 (Extended Mix) [flac]
DR4 -0.16 dB -5.85 dB 7:21 51 - Together Alone (Extended Mix) [flac]
DR4 -0.30 dB -7.42 dB 5:58 52 - Hearts Unspoken (Alex Leavon Extended Mix) [flac]
DR8 -0.52 dB -11.51 dB 6:04 53 - It's A Feeling (Extended Mix) [flac]
DR4 -0.00 dB -5.10 dB 6:30 54 - Between The Truth & The Lie (Beatsole Extended Mix) [flac]
DR5 -0.50 dB -6.53 dB 7:23 55 - Seven Colours of Sea (Extended Mix) [flac]
DR6 -0.00 dB -7.87 dB 6:29 56 - Silent For So Long (Ahmed Helmy Extended Mix) [flac]
DR6 -0.21 dB -7.86 dB 8:25 57 - The Sorrow Within (Extended Mix) [flac]
DR6 -0.00 dB -8.80 dB 6:58 58 - A Silent Hold (Extended Mix) [flac]
DR6 -0.65 dB -9.60 dB 6:57 59 - Every Time Your Heart Runs Dry (Extended Mix) [flac]
DR5 -0.10 dB -8.50 dB 6:29 60 - Re-Given (Nikolauss Extended Mix) [flac]
----------------------------------------------------------------------------------------------
Number of files:    60
Official DR value:  DR5

Sampling rate: 44100 Hz
Average bitrate: 1084kbs
Bits per sample: 16 bit

  User comments

No comments have been posted yet.


Post anonymous comment
:) :( :D :P :-) B) 8o :? 8) ;) :-* :-( :| O:-D :-@ :facepalm :o) brb :warn :help :bad :love :idea :bomb :!


CAPTCHA Image