Torrent details for "Vivarium.2020.HDRip.XviD.B4ND1T69"    Log in to bookmark

Loading...
Loading...
Torrent details
Cover
Download
Torrent rating (1 rated)
Controls:
Category:
Language:
English English
Total Size:
556.18 MB
Info Hash:
2b39c0ebbe1d18746a105d1a8d80f93b8cd57eee
Added By:
Added:  
28-03-2020 15:31
Views:
2,828
Health:
Seeds:
6
Leechers:
2
Completed:
413

File List (4) : 
Thanks for rating :
Reaper:_trusted_user::_sitefriend::_male::_sitelover::_junkie::_sun::_turtle: (4),

Title:
Vivarium (2019)
Genre:
Mystery, Sci-Fi
Runtime:
97 min    -    Rating: 6.5
Plot:
A young couple is thinking about buying their starter home. And to this end, they visit a real estate agency where they are received by a strange sales agent, who accompanies them to a new, mysterious, peculiar housing development to show them a single-family home. There they get trapped in a surreal, maze-like nightmare.

Description
Vivarium.2020.HDRip.XviD.B4ND1T69



Director: Lorcan Finnegan
Writers: Lorcan Finnegan (story by), Garret Shanley (story by)
Stars: Imogen Poots, Jesse Eisenberg, Danielle Ryan, Molly McCann

Plot/Story:
A young couple looking for the perfect home find themselves trapped in a mysterious labyrinth-like neighborhood of identical houses.

General
Complete name               : Vivarium.2020.HDRip.XviD.B4ND1T69.avi
Format                      : AVI
Format/Info                 : Audio Video Interleave
File size                   : 556 MiB
Duration                    : 1 h 37 min
Overall bit rate            : 794 kb/s
Subtitles                   : Yes...Included(HI)

Video
ID                          : 0
Format                      : MPEG-4 Visual
Format profile              : Advanced Simple@L4
Format settings, BVOP       : 2
Format settings, QPel       : No
Format settings, GMC        : No warppoints
Format settings, Matrix     : Default (H.263)
Codec ID                    : XVID
Codec ID/Hint               : XviD
Duration                    : 1 h 37 min
Bit rate                    : 653 kb/s
Width                       : 720 pixels
Height                      : 304 pixels
Display aspect ratio        : 2.35:1
Frame rate                  : 23.976 (24000/1001) FPS
Color space                 : YUV
Chroma subsampling          : 4:2:0
Bit depth                   : 8 bits
Scan type                   : Progressive
Compression mode            : Lossy
Bits/(Pixel*Frame)          : 0.124
Stream size                 : 457 MiB (82%)
Writing library             : XviD 64

Audio
ID                          : 1
Format                      : MPEG Audio
Format version              : Version 1
Format profile              : Layer 3
Codec ID                    : 55
Codec ID/Hint               : MP3
Duration                    : 1 h 37 min
Bit rate mode               : Constant
Bit rate                    : 128 kb/s
Channel(s)                  : 2 channels
Sampling rate               : 48.0 kHz
Compression mode            : Lossy
Stream size                 : 89.7 MiB (16%)
Alignment                   : Aligned on interleaves
Interleave, duration        : 24  ms (0.58 video frame)

Screenshots:










Please Seed For As Long As Possible
Or At Least 1:1 Ratio...Thanks
Enjoy Peeps



Similar torrents

Name 
DL
Uploader
Size 
S/L 
Added
-
1.35 GB
1,345
[5/2]
26/03/20 23:34
-
588.37 MB
3,051
[4/2]
22/05/20 19:03

  User comments

Posted: 2020-03-29 22:51:14 (14Wks ago) Report

avatar
Reppoints: 1110
Thank you nice Up!
Audio 8 Video 8

This Movie has That Problem Where the Setup is Cool...
But Then it has No Idea Where to Go after That....
This Loses Steam after 30 minutes.......
And it’s Such a Slog after That.......

My opinion only......................


Posted: 2020-03-30 04:13:24 (14Wks ago) Report

avatar
Reppoints: 240
I just watch it and turn it off after about 1 hour.

It goes nowhere and it doesn't do much to expand on the setup.

Very boring!


Post anonymous comment
:) :( :D :P :-) B) 8o :? 8) ;) :-* :-( :| O:-D :-@ :facepalm :o) brb :warn :help :bad :love :idea :bomb :!


CAPTCHA Image 

  Sitefriends