Torrent details for "Brimstone (2016) (1080p BDRip x265 10bit EAC3 5.1 - r0b0t) [TAoE].mkv"    Log in to bookmark

Loading...
Loading...
Torrent details
Cover
Download
Torrent rating (0 rated)
Controls:
Category:
Language:
English English
Total Size:
6.26 GB
Info Hash:
286010b5f2bfa3419839a7eb68f72e8268687a24
Added By:
Goki:_trusted_uploader::_junkie:  
Added:  
12-05-2020 09:25
Views:
423
Health:
Seeds:
2
Leechers:
0
Completed:
1,046

File List (1) : 
Title:
Brimstone (2016)
Genre:
Drama, Mystery, Thriller, Western
Runtime:
148 min    -    Rating: 7.1
Plot:
A triumphant epic of survival and a tale of powerful womanhood and resistance against the unforgiving cruelty of a hell on earth. Our heroine is Liz (Dakota Fanning), carved from the beautiful wilderness, full of heart and grit, hunted by a vengeful Preacher (Guy Pearce) - a diabolical zealot and her twisted nemesis. But Liz is a genuine survivor; she's no victim - a woman of fearsome strength who responds with astonishing bravery to claim the better life she and her daughter deserve. Fear not. Retribution is coming.

Description





Brimstone (2016) IMDB







Media Information
General
Unique ID                      : 54003756048847166151638201561057124798 (0x28A0BEBE1CC9AC249F04131C84A4E1BE)
Complete name                  : Brimstone (2016) (1080p BDRip x265 10bit EAC3 5.1 - r0b0t) [TAoE].mkv
Format                         : Matroska
Format version                 : Version 4 / Version 2
File size                      : 6.26 GiB
Duration                       : 2 h 28 min
Overall bit rate               : 6 034 kb/s
Writing application            : Lavf58.29.100
Writing library                : Lavf58.29.100 / Lavf58.29.100
ErrorDetectionType             : Per level 1

Video
ID                             : 1
Format                         : HEVC
Format/Info                    : High Efficiency Video Coding
Format profile                 : Main 10@L4@Main
Codec ID                       : V_MPEGH/ISO/HEVC
Bit rate                       : 5 466 kb/s
Width                          : 1 920 pixels
Height                         : 1 080 pixels
Display aspect ratio           : 16:9
Frame rate mode                : Variable
Original frame rate            : 23.976 FPS
Color space                    : YUV
Chroma subsampling             : 4:2:0
Bit depth                      : 10 bits
Title                          : Encoded by r0b0t for TAoE
Writing library                : x265 3.2+35-acc5d16999e2:[Windows][GCC 9.2.1][64 bit] 10bit
Encoding settings              : cpuid=1049583 / frame-threads=5 / numa-pools=16,16 / wpp / no-pmode / no-pme / no-psnr / no-ssim / log-level=2 / input-csp=1 / input-res=1920x1080 / interlace=0 / total-frames=0 / level-idc=0 / high-tier=1 / uhd-bd=0 / ref=4 / no-allow-non-conformance / no-repeat-headers / annexb / no-aud / no-hrd / info / hash=0 / no-temporal-layers / open-gop / min-keyint=23 / keyint=250 / gop-lookahead=0 / bframes=8 / b-adapt=2 / b-pyramid / bframe-bias=0 / rc-lookahead=80 / lookahead-slices=4 / scenecut=40 / hist-scenecut=0 / radl=0 / no-splice / no-intra-refresh / ctu=64 / min-cu-size=8 / no-rect / no-amp / max-tu-size=32 / tu-inter-depth=1 / tu-intra-depth=1 / limit-tu=0 / rdoq-level=2 / dynamic-rd=0.00 / no-ssim-rd / signhide / no-tskip / nr-intra=0 / nr-inter=0 / no-constrained-intra / no-strong-intra-smoothing / max-merge=3 / limit-refs=3 / limit-modes / me=3 / subme=5 / merange=57 / temporal-mvp / no-frame-dup / no-hme / weightp / no-weightb / no-analyze-src-pics / deblock=0:0 / sao / no-sao-non-deblock / rd=4 / selective-sao=4 / no-early-skip / rskip / no-fast-intra / no-tskip-fast / no-cu-lossless / no-b-intra / no-splitrd-skip / rdpenalty=0 / psy-rd=1.30 / psy-rdoq=2.00 / no-rd-refine / no-lossless / cbqpoffs=0 / crqpoffs=0 / rc=crf / crf=18.0 / qcomp=0.60 / qpstep=4 / stats-write=0 / stats-read=0 / ipratio=1.40 / pbratio=1.30 / aq-mode=4 / aq-strength=1.10 / cutree / zone-count=0 / no-strict-cbr / qg-size=32 / no-rc-grain / qpmax=69 / qpmin=0 / no-const-vbv / sar=1 / overscan=0 / videoformat=5 / range=0 / colorprim=2 / transfer=2 / colormatrix=2 / chromaloc=0 / display-window=0 / cll=0,0 / min-luma=0 / max-luma=1023 / log2-max-poc-lsb=8 / vui-timing-info / vui-hrd-info / slices=1 / no-opt-qp-pps / no-opt-ref-list-length-pps / no-multi-pass-opt-rps / scenecut-bias=0.05 / hist-threshold=0.01 / no-opt-cu-delta-qp / no-aq-motion / no-hdr10 / no-hdr10-opt / no-dhdr10-opt / no-idr-recovery-sei / analysis-reuse-level=0 / analysis-save-reuse-level=0 / analysis-load-reuse-level=0 / scale-factor=0 / refine-intra=0 / refine-inter=0 / refine-mv=1 / refine-ctu-distortion=0 / no-limit-sao / ctu-info=0 / no-lowpass-dct / refine-analysis-type=0 / copy-pic=1 / max-ausize-factor=1.0 / no-dynamic-refine / no-single-sei / no-hevc-aq / no-svt / no-field / qp-adaptation-range=1.00 / no-scenecut-aware-qpconformance-window-offsets / right=0 / bottom=0
Language                       : English
Default                        : Yes
Forced                         : No
Color range                    : Limited
Statistics Tags Issue          : mkvpropedit v28.2.0 ('The Awakening') 64-bit 2020-05-11 16:39:04 / Lavf58.29.100
FromStats_BitRate              : 5559541
FromStats_Duration             : 02:28:31.907708333
FromStats_FrameCount           : 213672
FromStats_StreamSize           : 6193264190

Audio
ID                             : 2
Format                         : E-AC-3
Format/Info                    : Enhanced Audio Coding 3
Format settings, Endianness    : Big
Codec ID                       : A_EAC3
Duration                       : 2 h 28 min
Bit rate mode                  : Constant
Bit rate                       : 448 kb/s
Channel(s)                     : 6 channels
Channel positions              : Front: L C R, Side: L R, LFE
Sampling rate                  : 48.0 kHz
Frame rate                     : 187.500 FPS (256 spf)
Bit depth                      : 16 bits
Compression mode               : Lossy
Stream size                    : 476 MiB (7%)
Writing library                : Lavc58.54.100 eac3
Language                       : English
Default                        : Yes
Forced                         : No
Statistics Tags Issue          : mkvpropedit v28.2.0 ('The Awakening') 64-bit 2020-05-11 16:39:04 / Lavf58.29.100
FromStats_BitRate              : 448001
FromStats_Duration             : 02:28:31.872000000
FromStats_FrameCount           : 278497
FromStats_StreamSize           : 499066624

Menu
00:00:00.000                   : : Chapter 1
00:04:29.853                   : : Chapter 2
00:11:51.920                   : : Chapter 3
00:19:58.489                   : : Chapter 4
00:25:06.213                   : : Chapter 5
00:32:22.190                   : : Chapter 6
00:42:25.042                   : : Chapter 7
00:48:21.148                   : : Chapter 8
00:55:44.341                   : : Chapter 9
01:01:14.254                   : : Chapter 10
01:06:42.040                   : : Chapter 11
01:17:13.963                   : : Chapter 12
01:24:38.156                   : : Chapter 13
01:32:47.312                   : : Chapter 14
01:39:57.241                   : : Chapter 15
01:49:04.788                   : : Chapter 16
01:56:10.630                   : : Chapter 17
02:02:54.867                   : : Chapter 18
02:13:38.177                   : : Chapter 19
02:20:17.909                   : : Chapter 20

Source Information
General
Unique ID                      : 59319899732237200918432726573552854756 (0x2CA098DCCE682673FE004341001566E4)
Complete name                  : Brimstone.2016.1080p.BluRay.REMUX.AVC.DTS-HD.MA.5.1-EPSiLON.mkv
Format                         : Matroska
Format version                 : Version 4 / Version 2
File size                      : 26.8 GiB
Duration                       : 2 h 28 min
Overall bit rate mode          : Variable
Overall bit rate               : 25.8 Mb/s
Encoded date                   : UTC 2017-04-03 15:58:38
Writing application            : mkvmerge v9.6.0 ('Slave To Your Mind') 64bit
Writing library                : libebml v1.3.4 + libmatroska v1.4.5

Video
ID                             : 1
Format                         : AVC
Format/Info                    : Advanced Video Codec
Format profile                 : High@L4.1
Format settings, CABAC         : Yes
Format settings, ReFrames      : 4 frames
Format settings, GOP           : M=3, N=24
Codec ID                       : V_MPEG4/ISO/AVC
Duration                       : 2 h 28 min
Bit rate mode                  : Variable
Bit rate                       : 24.0 Mb/s
Maximum bit rate               : 35.0 Mb/s
Width                          : 1 920 pixels
Height                         : 1 080 pixels
Display aspect ratio           : 16:9
Frame rate mode                : Constant
Frame rate                     : 23.976 (24000/1001) FPS
Standard                       : NTSC
Color space                    : YUV
Chroma subsampling             : 4:2:0
Bit depth                      : 8 bits
Scan type                      : Progressive
Bits/(Pixel*Frame)             : 0.483
Stream size                    : 24.9 GiB (93%)
Title                          : MPEG-4 AVC Video / 24000 kbps / 1080p / 23.976 fps / 16:9 / High Profile 4.1
Language                       : English
Default                        : Yes
Forced                         : No
Color range                    : Limited
Color primaries                : BT.709
Transfer characteristics       : BT.709
Matrix coefficients            : BT.709

Audio
ID                             : 2
Format                         : DTS
Format/Info                    : Digital Theater Systems
Format profile                 : MA / Core
Mode                           : 16
Format settings, Endianness    : Big
Codec ID                       : A_DTS
Duration                       : 2 h 28 min
Bit rate mode                  : Variable / Constant
Bit rate                       : 1 810 kb/s / 1 509 kb/s
Channel(s)                     : 6 channels
Channel positions              : Front: L C R, Side: L R, LFE
Sampling rate                  : 48.0 kHz
Frame rate                     : 93.750 FPS (512 spf)
Bit depth                      : 16 bits
Compression mode               : Lossless / Lossy
Stream size                    : 1.88 GiB (7%)
Language                       : English
Default                        : Yes
Forced                         : No

Menu
00:00:00.000                   : en: Chapter 1
00:04:29.853                   : en: Chapter 2
00:11:51.920                   : en: Chapter 3
00:19:58.489                   : en: Chapter 4
00:25:06.213                   : en: Chapter 5
00:32:22.190                   : en: Chapter 6
00:42:25.042                   : en: Chapter 7
00:48:21.148                   : en: Chapter 8
00:55:44.341                   : en: Chapter 9
01:01:14.254                   : en: Chapter 10
01:06:42.040                   : en: Chapter 11
01:17:13.963                   : en: Chapter 12
01:24:38.156                   : en: Chapter 13
01:32:47.312                   : en: Chapter 14
01:39:57.241                   : en: Chapter 15
01:49:04.788                   : en: Chapter 16
01:56:10.630                   : en: Chapter 17
02:02:54.867                   : en: Chapter 18
02:13:38.177                   : en: Chapter 19
02:20:17.909                   : en: Chapter 20

Hello everyone,
We are TAoE, a small team of passionate encoders who love encoding. We try our best to provide you with high quality releases.
If you would like to join the team just drop us a comment or send us a message.



.........................................................................................................................................

Similar torrents

Name 
DL
Uploader
Size 
S/L 
Added

  User comments

Guest-1453
Posted: 2020-06-18 18:08:49 (7Wks ago) Report
Guest user
avatar
Reppoints: -100
Hi guys may I please have access?


Posted: 2020-06-19 07:13:55 (7Wks ago) Report

avatar
Reppoints: 65
Hey mate, access to what?


Post anonymous comment
:) :( :D :P :-) B) 8o :? 8) ;) :-* :-( :| O:-D :-@ :facepalm :o) brb :warn :help :bad :love :idea :bomb :!


CAPTCHA Image 

  Sitefriends