Torrent details for "Corbin Nash (2018) (1080p BDRip x265 10bit EAC3 5.1 - DUHiT)[TAoE]"    Log in to bookmark

Loading...
Loading...
Torrent details
Cover
Download
Torrent rating (1 rated)
Controls:
Category:
Language:
English English
Total Size:
2.48 GB
Info Hash:
b139d665658784fdfd3b8792e3f3537f0726ed33
Added By:
Goki:_trusted_uploader::_junkie:  
Added:  
14-05-2020 12:48
Views:
373
Health:
Seeds:
2
Leechers:
1
Completed:
253

File List (1) : 
Thanks for rating :
dwarren61:_male: (5),

Title:
Genre:
Action, Horror, Thriller
Runtime:
94 min    -    Rating: 7.1
Director:
Plot:
Set in a bloodthirsty Los Angeles, one rogue detective's (Dean S. Jagger) obsessive search for the truth behind his parents' murders leads him to confront a monstrous duo of Queeny (Corey Feldman) and Vince (Richard Wagner) who drag him into a Hellish nightmare he was never prepared for. Lost to an underworld of horrors dating back to the dawn of time, he soon discovers that he is actually the last surviving member of the Nash family, a historic clan of demon hunters. As he is forced to acknowledge a foreboding destiny, he is attacked and brutally left for dead, only to be recovered by Macy (Fernanda Romero), a pure soul who is led by the mysterious Blind Prophet (Malcolm McDowell). At last, Detective Nash is reborn the ultimate killer. Seeking vengeance he wages a violent war on the Beasts that roam the darkness of this world, finally embracing his true legacy - CORBIN NASH, Demon Hunter. Rutger Hauer and Bruce Davison co-star.

Description





Corbin Nash (2018) IMDB







Media Information

General
Unique ID                                : 6884593593345206505671208305906861023 (0x52DECABBEF9F015C1DD47DDDDE2C3DF)
Complete name                            : Corbin Nash (2018) (1080p BDRip x265 10bit EAC3 5.1  - DUHiT)[TAoE].mkv
Format                                   : Matroska
Format version                           : Version 4
File size                                : 2.48 GiB
Duration                                 : 1 h 34 min
Overall bit rate                         : 3 735 kb/s
Movie name                               : Corbin Nash (2018) (1080p BDRip x265 10bit EAC3 5.1  - DUHiT)[TAoE]
Writing application                      : Lavf58.29.100
Writing library                          : Lavf58.29.100
ErrorDetectionType                       : Per level 1

Video
ID                                       : 1
Format                                   : HEVC
Format/Info                              : High Efficiency Video Coding
Format profile                           : Main 10@L4@Main
Codec ID                                 : V_MPEGH/ISO/HEVC
Bit rate                                 : 3 213 kb/s
Width                                    : 1 920 pixels
Height                                   : 1 080 pixels
Display aspect ratio                     : 16:9
Frame rate mode                          : Variable
Original frame rate                      : 23.976 FPS
Color space                              : YUV
Chroma subsampling                       : 4:2:0
Bit depth                                : 10 bits
Writing library                          : x265 3.3:[Linux][GCC 9.3.0][64 bit] 10bit
Encoding settings                        : cpuid=1049583 / frame-threads=5 / wpp / no-pmode / no-pme / no-psnr / no-ssim / log-level=2 / input-csp=1 / input-res=1920x1080 / interlace=0 / total-frames=0 / level-idc=0 / high-tier=1 / uhd-bd=0 / ref=4 / no-allow-non-conformance / no-repeat-headers / annexb / no-aud / no-hrd / info / hash=0 / no-temporal-layers / open-gop / min-keyint=23 / keyint=250 / gop-lookahead=0 / bframes=8 / b-adapt=2 / b-pyramid / bframe-bias=0 / rc-lookahead=80 / lookahead-slices=4 / scenecut=40 / hist-scenecut=0 / radl=0 / no-splice / no-intra-refresh / ctu=64 / min-cu-size=8 / rect / no-amp / max-tu-size=32 / tu-inter-depth=1 / tu-intra-depth=1 / limit-tu=0 / rdoq-level=2 / dynamic-rd=0.00 / no-ssim-rd / signhide / no-tskip / nr-intra=0 / nr-inter=0 / no-constrained-intra / strong-intra-smoothing / max-merge=3 / limit-refs=3 / limit-modes / me=3 / subme=5 / merange=57 / temporal-mvp / no-frame-dup / no-hme / weightp / no-weightb / no-analyze-src-pics / deblock=-2:-2 / no-sao / no-sao-non-deblock / rd=6 / selective-sao=0 / no-early-skip / rskip / no-fast-intra / no-tskip-fast / no-cu-lossless / no-b-intra / no-splitrd-skip / rdpenalty=0 / psy-rd=1.30 / psy-rdoq=2.00 / no-rd-refine / no-lossless / cbqpoffs=0 / crqpoffs=0 / rc=crf / crf=19.0 / qcomp=0.60 / qpstep=4 / stats-write=0 / stats-read=0 / ipratio=1.40 / pbratio=1.30 / aq-mode=4 / aq-strength=1.10 / cutree / zone-count=0 / no-strict-cbr / qg-size=32 / no-rc-grain / qpmax=69 / qpmin=0 / no-const-vbv / sar=1 / overscan=0 / videoformat=5 / range=0 / colorprim=2 / transfer=2 / colormatrix=2 / chromaloc=0 / display-window=0 / cll=0,0 / min-luma=0 / max-luma=1023 / log2-max-poc-lsb=8 / vui-timing-info / vui-hrd-info / slices=1 / no-opt-qp-pps / no-opt-ref-list-length-pps / no-multi-pass-opt-rps / scenecut-bias=0.05 / hist-threshold=0.01 / no-opt-cu-delta-qp / no-aq-motion / no-hdr10 / no-hdr10-opt / no-dhdr10-opt / no-idr-recovery-sei / analysis-reuse-level=0 / analysis-save-reuse-level=0 / analysis-load-reuse-level=0 / scale-factor=0 / refine-intra=0 / refine-inter=0 / refine-mv=1 / refine-ctu-distortion=0 / no-limit-sao / ctu-info=0 / no-lowpass-dct / refine-analysis-type=0 / copy-pic=1 / max-ausize-factor=1.0 / no-dynamic-refine / no-single-sei / no-hevc-aq / no-svt / no-field / qp-adaptation-range=1.00 / no-scenecut-aware-qpconformance-window-offsets / right=0 / bottom=0
Default                                  : Yes
Forced                                   : No
Color range                              : Limited

Audio
ID                                       : 2
Format                                   : E-AC-3
Format/Info                              : Enhanced AC-3
Commercial name                          : Dolby Digital Plus
Codec ID                                 : A_EAC3
Duration                                 : 1 h 34 min
Bit rate mode                            : Constant
Bit rate                                 : 448 kb/s
Channel(s)                               : 6 channels
Channel layout                           : L R C LFE Ls Rs
Sampling rate                            : 48.0 kHz
Frame rate                               : 31.250 FPS (1536 SPF)
Bit depth                                : 24 bits
Compression mode                         : Lossy
Stream size                              : 304 MiB (12%)
Title                                    : DTS-HD MA 5.1
Language                                 : English
Service kind                             : Complete Main
Default                                  : Yes
Forced                                   : No

Text
ID                                       : 3
Format                                   : PGS
Codec ID                                 : S_HDMV/PGS
Codec ID/Info                            : Picture based subtitle format used on BDs/HD-DVDs
Title                                    : English (SDH)
Language                                 : English
Default                                  : No
Forced                                   : No

Menu
00:00:00.000                             : :Chapter 01
00:11:59.761                             : :Chapter 02
00:22:30.474                             : :Chapter 03
00:32:46.965                             : :Chapter 04
00:43:20.264                             : :Chapter 05
00:53:11.605                             : :Chapter 06
01:01:38.111                             : :Chapter 07
01:11:10.516                             : :Chapter 08
01:21:11.283                             : :Chapter 09




Source Information

General
Complete name                            : Corbin.Nash.2018.BluRay.1080p.DTS-HD.MA.5.1.AVC.REMUX-FraMeSToR.mkv
Format                                   : Matroska
Format version                           : Version 4
File size                                : 20.3 GiB
Duration                                 : 1 h 34 min
Overall bit rate mode                    : Variable
Overall bit rate                         : 30.6 Mb/s
Encoded date                             : UTC 2018-07-04 17:41:16
Writing application                      : mkvmerge v24.0.0 ('Beyond The Pale') 64-bit
Writing library                          : libebml v1.3.6 + libmatroska v1.4.9

Video
ID                                       : 1
Format                                   : AVC
Format/Info                              : Advanced Video Codec
Format profile                           : High@L4.1
Format settings                          : CABAC / 4 Ref Frames
Format settings, CABAC                   : Yes
Format settings, Reference frames        : 4 frames
Codec ID                                 : V_MPEG4/ISO/AVC
Duration                                 : 1 h 34 min
Bit rate mode                            : Variable
Bit rate                                 : 26.5 Mb/s
Maximum bit rate                         : 38.0 Mb/s
Width                                    : 1 920 pixels
Height                                   : 1 080 pixels
Display aspect ratio                     : 16:9
Frame rate mode                          : Constant
Frame rate                               : 23.976 (24000/1001) FPS
Color space                              : YUV
Chroma subsampling                       : 4:2:0
Bit depth                                : 8 bits
Scan type                                : Progressive
Bits/(Pixel*Frame)                       : 0.533
Stream size                              : 17.6 GiB (87%)
Default                                  : Yes
Forced                                   : No

Audio
ID                                       : 2
Format                                   : DTS XLL
Format/Info                              : Digital Theater Systems
Commercial name                          : DTS-HD Master Audio
Codec ID                                 : A_DTS
Duration                                 : 1 h 34 min
Bit rate mode                            : Variable
Bit rate                                 : 4 090 kb/s
Channel(s)                               : 6 channels
Channel layout                           : C L R Ls Rs LFE
Sampling rate                            : 48.0 kHz
Frame rate                               : 93.750 FPS (512 SPF)
Bit depth                                : 24 bits
Compression mode                         : Lossless
Stream size                              : 2.71 GiB (13%)
Title                                    : DTS-HD MA 5.1
Language                                 : English
Default                                  : Yes
Forced                                   : No

Text
ID                                       : 3
Format                                   : PGS
Codec ID                                 : S_HDMV/PGS
Codec ID/Info                            : Picture based subtitle format used on BDs/HD-DVDs
Duration                                 : 1 h 30 min
Bit rate                                 : 42.3 kb/s
Count of elements                        : 2198
Stream size                              : 27.4 MiB (0%)
Title                                    : English (SDH)
Language                                 : English
Default                                  : No
Forced                                   : No

Menu
00:00:00.000                             : en:Chapter 01
00:11:59.761                             : en:Chapter 02
00:22:30.474                             : en:Chapter 03
00:32:46.965                             : en:Chapter 04
00:43:20.264                             : en:Chapter 05
00:53:11.605                             : en:Chapter 06
01:01:38.111                             : en:Chapter 07
01:11:10.516                             : en:Chapter 08
01:21:11.283                             : en:Chapter 09




Hello everyone,
We are TAoE, a small team of passionate encoders who love encoding. We try our best to provide you with high quality releases.
If you would like to join the team just drop us a comment or send us a message.



.........................................................................................................................................


Similar torrents

Name 
DL
Uploader
Size 
S/L 
Added
-
453.08 MB
873
[0/0]
08/06/18 09:42
-
1.37 GB
856
[0/0]
08/06/18 10:47
700.17 MB
1,068
[0/0]
08/06/18 16:01

  User comments

Posted: 2020-05-15 00:32:48 (12Wks ago) Report

avatar
Reppoints: 5
By the wayThanks for keeping shows and movies on
here. Great Job, if I could clap or high five you guys........ :P
Myself, Ilove this. there is always some to grab and watch
In theses harder then normal times. With this COVID-19
virus everywhere all over the world... but i can still download and relax
with a smoke or two, or a beer .if you drink...... :P
By the way Tks for the up........ :P


Posted: 2020-05-15 00:53:59 (12Wks ago) Report

avatar
Reppoints: 65
Hey dwarren61,
Glad you are enjoying our releases.
Many more on the way!
These are hard times glad we are able to make it a little easier to deal with.
I have a drink from time to time  but not much these days.
Enjoy!


Post anonymous comment
:) :( :D :P :-) B) 8o :? 8) ;) :-* :-( :| O:-D :-@ :facepalm :o) brb :warn :help :bad :love :idea :bomb :!


CAPTCHA Image 

  Sitefriends