Torrent details for "Doctor Strange (2016) [2160p] [HDR] (bluray) [WMAN-LorD]"    Log in to bookmark

Loading...
Loading...
Torrent details
Cover
Download
Torrent rating (0 rated)
Controls:
Category:
Language:
English English
Total Size:
4.70 GB
Info Hash:
648695d1e4440fc3cb24c8960da32d3850680fe6
Added By:
Added:  
23-05-2020 00:44 (edited 23-05-2020 01:32) by RedBaron58:_super_admin::_male::_junkie:
Views:
192
Health:
Seeds:
22
Leechers:
6
Completed:
663

File List (2) : 
Title:
Genre:
Action, Adventure, Fantasy, Sci-Fi
Runtime:
115 min    -    Rating: 7.5
Plot:
Marvel's "Doctor Strange" follows the story of the talented neurosurgeon Doctor Stephen Strange who, after a tragic car accident, must put ego aside and learn the secrets of a hidden world of mysticism and alternate dimensions. Based in New York City's Greenwich Village, Doctor Strange must act as an intermediary between the real world and what lies beyond, utilising a vast array of metaphysical abilities and artifacts to protect the Marvel Cinematic Universe.

Description
Release info:
>Encoded by: [WMAN-LorD]
>HDR working!
>Source: Blu-ray Original 4k HDR











General
Unique ID                   : 83049730469752166683635074063025094604 (0x3E7ACBD8E85D71AE5088B2CF4838BFCC)
Complete name               : Doctor.Strange.2016.2160p.UHD.HDR.BluRay.x265.10bit.DD5.1.[WMAN-LorD].mkv
Format                      : Matroska
Format version              : Version 4
File size                   : 4.70 GiB
Duration                    : 1 h 54 min
Overall bit rate            : 5 854 kb/s
Movie name                  : Doctor Strange (2016) [WMAN-LorD]
Encoded date                : UTC 2019-09-28 17:05:49
Writing application         : mkvmerge v36.0.0 ('Is That Jazz?') 64-bit
Writing library             : libebml v1.3.9 + libmatroska v1.5.2
Cover                       : Yes
Attachments                 : cover.jpg
IMDB                        : tt1211837
TMDB                        : movie/284052

Video
ID                          : 1
Format                      : HEVC
Format/Info                 : High Efficiency Video Coding
Format profile              : Main 10@L5@Main
Codec ID                    : V_MPEGH/ISO/HEVC
Duration                    : 1 h 54 min
Bit rate                    : 4 987 kb/s
Width                       : 3 840 pixels
Height                      : 2 160 pixels
Display aspect ratio        : 16:9
Frame rate mode             : Constant
Frame rate                  : 23.976 (24000/1001) FPS
Color space                 : YUV
Chroma subsampling          : 4:2:0
Bit depth                   : 10 bits
Bits/(Pixel*Frame)          : 0.025
Stream size                 : 4.01 GiB (85%)
Title                       : [WMAN-LorD]
Language                    : English
Default                     : Yes
Forced                      : No
Color range                 : Limited
Color primaries             : BT.2020
Transfer characteristics    : PQ
Matrix coefficients         : BT.2020 non-constant

Audio
ID                          : 2
Format                      : AC-3
Format/Info                 : Audio Coding 3
Commercial name             : Dolby Digital
Codec ID                    : A_AC3
Duration                    : 1 h 54 min
Bit rate mode               : Constant
Bit rate                    : 640 kb/s
Channel(s)                  : 6 channels
Channel layout              : L R C LFE Ls Rs
Sampling rate               : 48.0 kHz
Frame rate                  : 31.250 FPS (1536 SPF)
Compression mode            : Lossy
Stream size                 : 526 MiB (11%)
Title                       : Compatibility Track / Dolby Digital Audio / 5.1 / 48 kHz / 640 kbps
Language                    : English
Service kind                : Complete Main
Default                     : No
Forced                      : No

Text #1
ID                          : 3
Format                      : PGS
Muxing mode                 : zlib
Codec ID                    : S_HDMV/PGS
Codec ID/Info               : Picture based subtitle format used on BDs/HD-DVDs
Duration                    : 1 h 52 min
Bit rate                    : 28.1 kb/s
Count of elements           : 2558
Stream size                 : 22.5 MiB (0%)
Title                       : Portuguese Brazil
Language                    : Portuguese
Default                     : Yes
Forced                      : No

Text #2
ID                          : 4
Format                      : PGS
Muxing mode                 : zlib
Codec ID                    : S_HDMV/PGS
Codec ID/Info               : Picture based subtitle format used on BDs/HD-DVDs
Duration                    : 1 h 52 min
Bit rate                    : 28.0 kb/s
Count of elements           : 2570
Stream size                 : 22.5 MiB (0%)
Language                    : English
Default                     : No
Forced                      : No

Text #3
ID                          : 5
Format                      : PGS
Muxing mode                 : zlib
Codec ID                    : S_HDMV/PGS
Codec ID/Info               : Picture based subtitle format used on BDs/HD-DVDs
Duration                    : 1 h 54 min
Bit rate                    : 33.2 kb/s
Count of elements           : 3168
Stream size                 : 27.1 MiB (1%)
Title                       : SDH
Language                    : English
Default                     : No
Forced                      : No

Text #4
ID                          : 6
Format                      : PGS
Muxing mode                 : zlib
Codec ID                    : S_HDMV/PGS
Codec ID/Info               : Picture based subtitle format used on BDs/HD-DVDs
Duration                    : 1 h 52 min
Bit rate                    : 16.7 kb/s
Count of elements           : 2568
Stream size                 : 13.4 MiB (0%)
Title                       : Cantonese
Language                    : Chinese
Default                     : No
Forced                      : No

Text #5
ID                          : 7
Format                      : PGS
Muxing mode                 : zlib
Codec ID                    : S_HDMV/PGS
Codec ID/Info               : Picture based subtitle format used on BDs/HD-DVDs
Duration                    : 1 h 54 min
Bit rate                    : 22.3 kb/s
Count of elements           : 2656
Stream size                 : 18.2 MiB (0%)
Title                       : Mandarin Simplified
Language                    : Chinese
Default                     : No
Forced                      : No

Text #6
ID                          : 8
Format                      : PGS
Muxing mode                 : zlib
Codec ID                    : S_HDMV/PGS
Codec ID/Info               : Picture based subtitle format used on BDs/HD-DVDs
Duration                    : 1 h 52 min
Bit rate                    : 19.0 kb/s
Count of elements           : 2658
Stream size                 : 15.3 MiB (0%)
Title                       : Mandarin Traditional
Language                    : Chinese
Default                     : No
Forced                      : No

Text #7
ID                          : 9
Format                      : PGS
Muxing mode                 : zlib
Codec ID                    : S_HDMV/PGS
Codec ID/Info               : Picture based subtitle format used on BDs/HD-DVDs
Duration                    : 1 h 52 min
Bit rate                    : 25.6 kb/s
Count of elements           : 2546
Stream size                 : 20.5 MiB (0%)
Language                    : Czech
Default                     : No
Forced                      : No

Text #8
ID                          : 10
Format                      : PGS
Muxing mode                 : zlib
Codec ID                    : S_HDMV/PGS
Codec ID/Info               : Picture based subtitle format used on BDs/HD-DVDs
Duration                    : 1 h 52 min
Bit rate                    : 25.4 kb/s
Count of elements           : 1954
Stream size                 : 20.4 MiB (0%)
Language                    : Danish
Default                     : No
Forced                      : No

Text #9
ID                          : 11
Format                      : PGS
Muxing mode                 : zlib
Codec ID                    : S_HDMV/PGS
Codec ID/Info               : Picture based subtitle format used on BDs/HD-DVDs
Duration                    : 1 h 52 min
Bit rate                    : 25.2 kb/s
Count of elements           : 1844
Stream size                 : 20.3 MiB (0%)
Language                    : Dutch
Default                     : No
Forced                      : No

Text #10
ID                          : 12
Format                      : PGS
Muxing mode                 : zlib
Codec ID                    : S_HDMV/PGS
Codec ID/Info               : Picture based subtitle format used on BDs/HD-DVDs
Duration                    : 1 h 52 min
Bit rate                    : 28.1 kb/s
Count of elements           : 2546
Stream size                 : 22.6 MiB (0%)
Language                    : Finnish
Default                     : No
Forced                      : No

Text #11
ID                          : 13
Format                      : PGS
Muxing mode                 : zlib
Codec ID                    : S_HDMV/PGS
Codec ID/Info               : Picture based subtitle format used on BDs/HD-DVDs
Duration                    : 1 h 52 min
Bit rate                    : 29.6 kb/s
Count of elements           : 2608
Stream size                 : 23.8 MiB (0%)
Title                       : Canadian
Language                    : French
Default                     : No
Forced                      : No

Text #12
ID                          : 14
Format                      : PGS
Muxing mode                 : zlib
Codec ID                    : S_HDMV/PGS
Codec ID/Info               : Picture based subtitle format used on BDs/HD-DVDs
Duration                    : 1 h 52 min
Bit rate                    : 24.8 kb/s
Count of elements           : 2344
Stream size                 : 20.0 MiB (0%)
Title                       : Parisian
Language                    : French
Default                     : No
Forced                      : No

Text #13
ID                          : 15
Format                      : PGS
Muxing mode                 : zlib
Codec ID                    : S_HDMV/PGS
Codec ID/Info               : Picture based subtitle format used on BDs/HD-DVDs
Duration                    : 1 h 52 min
Bit rate                    : 30.6 kb/s
Count of elements           : 2548
Stream size                 : 24.6 MiB (1%)
Language                    : German
Default                     : No
Forced                      : No

Text #14
ID                          : 16
Format                      : PGS
Muxing mode                 : zlib
Codec ID                    : S_HDMV/PGS
Codec ID/Info               : Picture based subtitle format used on BDs/HD-DVDs
Duration                    : 1 h 52 min
Bit rate                    : 26.8 kb/s
Count of elements           : 2558
Stream size                 : 21.6 MiB (0%)
Language                    : Hungarian
Default                     : No
Forced                      : No

Text #15
ID                          : 17
Format                      : PGS
Muxing mode                 : zlib
Codec ID                    : S_HDMV/PGS
Codec ID/Info               : Picture based subtitle format used on BDs/HD-DVDs
Duration                    : 1 h 52 min
Bit rate                    : 24.6 kb/s
Count of elements           : 2556
Stream size                 : 19.8 MiB (0%)
Language                    : Indonesian
Default                     : No
Forced                      : No

Text #16
ID                          : 18
Format                      : PGS
Muxing mode                 : zlib
Codec ID                    : S_HDMV/PGS
Codec ID/Info               : Picture based subtitle format used on BDs/HD-DVDs
Duration                    : 1 h 52 min
Bit rate                    : 28.5 kb/s
Count of elements           : 2556
Stream size                 : 22.9 MiB (0%)
Language                    : Italian
Default                     : No
Forced                      : No

Text #17
ID                          : 19
Format                      : PGS
Muxing mode                 : zlib
Codec ID                    : S_HDMV/PGS
Codec ID/Info               : Picture based subtitle format used on BDs/HD-DVDs
Duration                    : 1 h 52 min
Bit rate                    : 19.5 kb/s
Count of elements           : 2236
Stream size                 : 15.7 MiB (0%)
Language                    : Japanese
Default                     : No
Forced                      : No

Text #18
ID                          : 20
Format                      : PGS
Muxing mode                 : zlib
Codec ID                    : S_HDMV/PGS
Codec ID/Info               : Picture based subtitle format used on BDs/HD-DVDs
Duration                    : 1 h 52 min
Bit rate                    : 14.5 kb/s
Count of elements           : 2562
Stream size                 : 11.6 MiB (0%)
Language                    : Korean
Default                     : No
Forced                      : No

Text #19
ID                          : 21
Format                      : PGS
Muxing mode                 : zlib
Codec ID                    : S_HDMV/PGS
Codec ID/Info               : Picture based subtitle format used on BDs/HD-DVDs
Duration                    : 1 h 52 min
Bit rate                    : 28.2 kb/s
Count of elements           : 2564
Stream size                 : 22.7 MiB (0%)
Language                    : Malay
Default                     : No
Forced                      : No

Text #20
ID                          : 22
Format                      : PGS
Muxing mode                 : zlib
Codec ID                    : S_HDMV/PGS
Codec ID/Info               : Picture based subtitle format used on BDs/HD-DVDs
Duration                    : 1 h 52 min
Bit rate                    : 26.9 kb/s
Count of elements           : 2562
Stream size                 : 21.6 MiB (0%)
Language                    : Norwegian
Default                     : No
Forced                      : No

Text #21
ID                          : 23
Format                      : PGS
Muxing mode                 : zlib
Codec ID                    : S_HDMV/PGS
Codec ID/Info               : Picture based subtitle format used on BDs/HD-DVDs
Duration                    : 1 h 52 min
Bit rate                    : 25.1 kb/s
Count of elements           : 2514
Stream size                 : 20.2 MiB (0%)
Language                    : Polish
Default                     : No
Forced                      : No

Text #22
ID                          : 24
Format                      : PGS
Muxing mode                 : zlib
Codec ID                    : S_HDMV/PGS
Codec ID/Info               : Picture based subtitle format used on BDs/HD-DVDs
Duration                    : 1 h 52 min
Bit rate                    : 29.0 kb/s
Count of elements           : 2570
Stream size                 : 23.3 MiB (0%)
Title                       : Iberian
Language                    : Portuguese
Default                     : No
Forced                      : No

Text #23
ID                          : 25
Format                      : PGS
Muxing mode                 : zlib
Codec ID                    : S_HDMV/PGS
Codec ID/Info               : Picture based subtitle format used on BDs/HD-DVDs
Duration                    : 1 h 52 min
Bit rate                    : 28.0 kb/s
Count of elements           : 2580
Stream size                 : 22.5 MiB (0%)
Language                    : Russian
Default                     : No
Forced                      : No

Text #24
ID                          : 26
Format                      : PGS
Muxing mode                 : zlib
Codec ID                    : S_HDMV/PGS
Codec ID/Info               : Picture based subtitle format used on BDs/HD-DVDs
Duration                    : 1 h 52 min
Bit rate                    : 27.9 kb/s
Count of elements           : 2554
Stream size                 : 22.4 MiB (0%)
Title                       : Castilian
Language                    : Spanish
Default                     : No
Forced                      : No

Text #25
ID                          : 27
Format                      : PGS
Muxing mode                 : zlib
Codec ID                    : S_HDMV/PGS
Codec ID/Info               : Picture based subtitle format used on BDs/HD-DVDs
Duration                    : 1 h 52 min
Bit rate                    : 28.2 kb/s
Count of elements           : 2562
Stream size                 : 22.6 MiB (0%)
Title                       : Latin American
Language                    : Spanish
Default                     : No
Forced                      : No

Text #26
ID                          : 28
Format                      : PGS
Muxing mode                 : zlib
Codec ID                    : S_HDMV/PGS
Codec ID/Info               : Picture based subtitle format used on BDs/HD-DVDs
Duration                    : 1 h 52 min
Bit rate                    : 25.1 kb/s
Count of elements           : 1768
Stream size                 : 20.1 MiB (0%)
Language                    : Swedish
Default                     : No
Forced                      : No

Text #27
ID                          : 29
Format                      : PGS
Muxing mode                 : zlib
Codec ID                    : S_HDMV/PGS
Codec ID/Info               : Picture based subtitle format used on BDs/HD-DVDs
Duration                    : 1 h 52 min
Bit rate                    : 17.6 kb/s
Count of elements           : 2574
Stream size                 : 14.1 MiB (0%)
Language                    : Thai
Default                     : No
Forced                      : No

Menu
00:00:00.000                : en:Prologue
00:04:34.274                : en:The Good Doctor
00:10:16.533                : en:Medicine And Mania
00:18:31.861                : en:Kamar-Taj
00:24:36.725                : en:Open Your Eye
00:31:40.190                : en:The Mystic Arts
00:38:33.520                : en:Surrender
00:43:15.843                : en:Infinite Dangers
00:48:24.235                : en:Eye Of Agamotto
00:55:34.206                : en:Sanctum Siege
01:05:04.067                : en:Astral Battle
01:12:38.145                : en:Manhattan Mirror Dimension
01:22:14.054                : en:It's Not About You
01:28:28.345                : en:Defending Hong Kong
01:35:00.612                : en:The Dark Dimension
01:45:06.217                : en:End Credits








  User comments

No comments have been posted yet.


Post anonymous comment
:) :( :D :P :-) B) 8o :? 8) ;) :-* :-( :| O:-D :-@ :facepalm :o) brb :warn :help :bad :love :idea :bomb :!


CAPTCHA Image