Torrent details for "SpongeBob SquarePants (1999) S00E22 It's a SpongeBob Christmas! (1080p BDRip x265 10bit EAC3 5.1 - F..."    Log in to bookmark

Loading...
Loading...
Torrent details
Cover
Download
Torrent rating (0 rated)
Controls:
Category:
Language:
English English
Total Size:
1.25 GB
Info Hash:
af761873fa8331b2df7e201712681159b87bece9
Added By:
Goki:_trusted_uploader::_junkie:  
Added:  
24-05-2020 23:28
Views:
296
Health:
Seeds:
0
Leechers:
0
Completed:
12

File List (1) : 
Genre:
Animation, Comedy, Family, Fantasy
Runtime:
23 min    -    Rating: 7.2
Plot:
n/A

Description





It's a Spongebob Christmas! (2012) IMDB










Note: Special thanks to aj12345 for the source

Media Information
Format                                   : Matroska
Format version                           : Version 4
File size                                : 1.25 GiB
Duration                                 : 24 min 24 s
Overall bit rate                         : 7 303 kb/s
Movie name                               : SpongeBob SquarePants (1999) S00E22 It's a SpongeBob Christmas! (1080p BDRip x265 10bit EAC3 5.1 - Frys) [TAoE].mkv
Writing application                      : Lavf58.29.100
Writing library                          : Lavf58.29.100
ErrorDetectionType                       : Per level 1

Video
ID                                       : 1
Format                                   : HEVC
Format/Info                              : High Efficiency Video Coding
Format profile                           : Main 10@L4@Main
Codec ID                                 : V_MPEGH/ISO/HEVC
Duration                                 : 24 min 24 s
Bit rate                                 : 6 806 kb/s
Width                                    : 1 920 pixels
Height                                   : 1 080 pixels
Display aspect ratio                     : 16:9
Frame rate mode                          : Variable
Frame rate                               : 29.970 FPS
Color space                              : YUV
Chroma subsampling                       : 4:2:0
Bit depth                                : 10 bits
Bits/(Pixel*Frame)                       : 0.110
Stream size                              : 1.16 GiB (93%)
Writing library                          : x265 3.3+2-gbe2d82093:[Windows][GCC 9.2.0][64 bit] 10bit
Encoding settings                        : cpuid=1111039 / frame-threads=3 / numa-pools=12 / wpp / no-pmode / no-pme / no-psnr / no-ssim / log-level=2 / input-csp=1 / input-res=1920x1080 / interlace=0 / total-frames=43904 / level-idc=0 / high-tier=1 / uhd-bd=0 / ref=4 / no-allow-non-conformance / no-repeat-headers / annexb / no-aud / no-hrd / info / hash=0 / no-temporal-layers / open-gop / min-keyint=25 / keyint=250 / gop-lookahead=0 / bframes=8 / b-adapt=2 / b-pyramid / bframe-bias=0 / rc-lookahead=80 / lookahead-slices=4 / scenecut=40 / hist-scenecut=0 / radl=0 / no-splice / no-intra-refresh / ctu=64 / min-cu-size=8 / no-rect / no-amp / max-tu-size=32 / tu-inter-depth=1 / tu-intra-depth=1 / limit-tu=0 / rdoq-level=2 / dynamic-rd=0.00 / no-ssim-rd / signhide / no-tskip / nr-intra=0 / nr-inter=0 / no-constrained-intra / no-strong-intra-smoothing / max-merge=3 / limit-refs=3 / limit-modes / me=3 / subme=5 / merange=57 / temporal-mvp / no-frame-dup / no-hme / weightp / no-weightb / no-analyze-src-pics / deblock=0:0 / sao / no-sao-non-deblock / rd=4 / selective-sao=4 / no-early-skip / rskip / no-fast-intra / no-tskip-fast / no-cu-lossless / no-b-intra / no-splitrd-skip / rdpenalty=0 / psy-rd=1.30 / psy-rdoq=2.00 / no-rd-refine / no-lossless / cbqpoffs=0 / crqpoffs=0 / rc=crf / crf=19.0 / qcomp=0.60 / qpstep=4 / stats-write=0 / stats-read=0 / ipratio=1.40 / pbratio=1.30 / aq-mode=4 / aq-strength=1.10 / cutree / zone-count=0 / no-strict-cbr / qg-size=32 / no-rc-grain / qpmax=69 / qpmin=0 / no-const-vbv / sar=0 / overscan=0 / videoformat=5 / range=0 / colorprim=2 / transfer=2 / colormatrix=2 / chromaloc=0 / display-window=0 / cll=0,0 / min-luma=0 / max-luma=1023 / log2-max-poc-lsb=8 / vui-timing-info / vui-hrd-info / slices=1 / no-opt-qp-pps / no-opt-ref-list-length-pps / no-multi-pass-opt-rps / scenecut-bias=0.05 / hist-threshold=0.01 / no-opt-cu-delta-qp / no-aq-motion / no-hdr10 / no-hdr10-opt / no-dhdr10-opt / no-idr-recovery-sei / analysis-reuse-level=0 / analysis-save-reuse-level=0 / analysis-load-reuse-level=0 / scale-factor=0 / refine-intra=0 / refine-inter=0 / refine-mv=1 / refine-ctu-distortion=0 / no-limit-sao / ctu-info=0 / no-lowpass-dct / refine-analysis-type=0 / copy-pic=1 / max-ausize-factor=1.0 / no-dynamic-refine / no-single-sei / no-hevc-aq / no-svt / no-field / qp-adaptation-range=1.00 / no-scenecut-aware-qpconformance-window-offsets / right=0 / bottom=0
Default                                  : Yes
Forced                                   : No
Color range                              : Limited

Audio
ID                                       : 2
Format                                   : E-AC-3
Format/Info                              : Enhanced AC-3
Commercial name                          : Dolby Digital Plus
Codec ID                                 : A_EAC3
Duration                                 : 24 min 24 s
Bit rate mode                            : Constant
Bit rate                                 : 448 kb/s
Channel(s)                               : 6 channels
Channel layout                           : L R C LFE Ls Rs
Sampling rate                            : 48.0 kHz
Frame rate                               : 31.250 FPS (1536 SPF)
Bit depth                                : 24 bits
Compression mode                         : Lossy
Stream size                              : 78.2 MiB (6%)
Title                                    : Surround 5.1
Writing library                          : Lavc58.54.100 eac3
Language                                 : English
Service kind                             : Complete Main
Default                                  : No
Forced                                   : No

Text
ID                                       : 3
Format                                   : PGS
Codec ID                                 : S_HDMV/PGS
Codec ID/Info                            : Picture based subtitle format used on BDs/HD-DVDs
Duration                                 : 22 min 52 s
Bit rate                                 : 48.6 kb/s
Count of elements                        : 690
Stream size                              : 7.95 MiB (1%)
Language                                 : English
Default                                  : No
Forced                                   : No

Menu
00:00:00.000                             : :Chapter 01
00:23:06.818                             : :Chapter 02


Source Information
Format                                   : Matroska
Format version                           : Version 4
File size                                : 5.97 GiB
Duration                                 : 24 min 24 s
Overall bit rate mode                    : Variable
Overall bit rate                         : 35.0 Mb/s
Movie name                               : SpongeBob SquarePants: It's A SpongeBob Christmas!
Encoded date                             : UTC 2020-05-23 07:04:55
Writing application                      : mkvmerge v46.0.0 ('No Deeper Escape') 64-bit
Writing library                          : libebml v1.3.10 + libmatroska v1.5.2

Video
ID                                       : 1
ID in the original source medium         : 4113 (0x1011)
Format                                   : AVC
Format/Info                              : Advanced Video Codec
Format profile                           : High@L4.1
Format settings                          : CABAC / 4 Ref Frames
Format settings, CABAC                   : Yes
Format settings, Reference frames        : 4 frames
Codec ID                                 : V_MPEG4/ISO/AVC
Duration                                 : 24 min 24 s
Bit rate mode                            : Variable
Bit rate                                 : 32.5 Mb/s
Maximum bit rate                         : 39.0 Mb/s
Width                                    : 1 920 pixels
Height                                   : 1 080 pixels
Display aspect ratio                     : 16:9
Frame rate mode                          : Constant
Frame rate                               : 29.970 (30000/1001) FPS
Color space                              : YUV
Chroma subsampling                       : 4:2:0
Bit depth                                : 8 bits
Scan type                                : MBAFF
Scan type, store method                  : Interleaved fields
Scan order                               : Top Field First
Bits/(Pixel*Frame)                       : 0.522
Stream size                              : 5.53 GiB (93%)
Language                                 : English
Default                                  : No
Forced                                   : No
Original source medium                   : Blu-ray

Audio
ID                                       : 2
ID in the original source medium         : 4352 (0x1100)
Format                                   : DTS XLL
Format/Info                              : Digital Theater Systems
Commercial name                          : DTS-HD Master Audio
Codec ID                                 : A_DTS
Duration                                 : 24 min 24 s
Bit rate mode                            : Variable
Bit rate                                 : 2 523 kb/s
Channel(s)                               : 6 channels
Channel layout                           : C L R Ls Rs LFE
Sampling rate                            : 48.0 kHz
Frame rate                               : 93.750 FPS (512 SPF)
Bit depth                                : 24 bits
Compression mode                         : Lossless
Stream size                              : 441 MiB (7%)
Title                                    : Surround 5.1
Language                                 : English
Default                                  : Yes
Forced                                   : No
Original source medium                   : Blu-ray

Text
ID                                       : 3
ID in the original source medium         : 4608 (0x1200)
Format                                   : PGS
Muxing mode                              : zlib
Codec ID                                 : S_HDMV/PGS
Codec ID/Info                            : Picture based subtitle format used on BDs/HD-DVDs
Duration                                 : 22 min 52 s
Bit rate                                 : 48.6 kb/s
Count of elements                        : 690
Stream size                              : 7.95 MiB (0%)
Language                                 : English
Default                                  : No
Forced                                   : No
Original source medium                   : Blu-ray

Menu
00:00:00.000                             : en:Chapter 01
00:23:06.818                             : en:Chapter 02

Hello everyone,
We are TAoE, a small team of passionate encoders who love encoding. We try our best to provide you with high quality releases.

Requests for movies and shows are welcome.
We have a form for encode requests which can be found here
Encode requests form
submit your request and it will be added to our encoding request list
You can view our encoding request list here
Encode requests list


When or if we encode it will depend on if we can obtain a good source to encode with and
if one of the TAoE encoders chooses to encode it. Unfortunately we are not able to encode everything,
new members are welcome as that helps us encode more content!

If you would like to join TAoE submit your request here!
TAoE member applications form





.........................................................................................................................................

Similar torrents

Name 
DL
Uploader
Size 
S/L 
Added

  User comments

Guest-2918
Posted: 2020-05-25 22:37:11 (11Wks ago) Report
Guest user
avatar
Reppoints: -100
im unable to leech:-(


Posted: 2020-05-26 01:59:09 (11Wks ago) Report

avatar
Reppoints: 65
Should work fine now.


Post anonymous comment
:) :( :D :P :-) B) 8o :? 8) ;) :-* :-( :| O:-D :-@ :facepalm :o) brb :warn :help :bad :love :idea :bomb :!


CAPTCHA Image 

  Sitefriends