Torrent details for "No Country for Old Men (2007) (1080p BDRip x265 10bit EAC3 5.1 - r0b0t) [TAoE].mkv"    Log in to bookmark

Loading...
Loading...
Torrent details
Cover
Download
Torrent rating (1 rated)
Controls:
Category:
Language:
English English
Total Size:
4.78 GB
Info Hash:
cd9d37d97856d4ce151e839c39197b8cde7e1e77
Added By:
Goki:_trusted_uploader::_junkie:  
Added:  
02-06-2020 15:01 (edited 02-06-2020 15:04) by Goki:_trusted_uploader::_junkie:
Views:
337
Health:
Seeds:
3
Leechers:
1
Completed:
218

File List (1) : 
Thanks for rating :
dwarren61:_male: (5),

Genre:
Crime, Drama, Thriller
Runtime:
122 min    -    Rating: 8.1
Plot:
In rural Texas, welder and hunter Llewelyn Moss (Josh Brolin) discovers the remains of several drug runners who have all killed each other in an exchange gone violently wrong. Rather than report the discovery to the police, Moss decides to simply take the two million dollars present for himself. This puts the psychopathic killer, Anton Chigurh (Javier Bardem), on his trail as he dispassionately murders nearly every rival, bystander and even employer in his pursuit of his quarry and the money. As Moss desperately attempts to keep one step ahead, the blood from this hunt begins to flow behind him with relentlessly growing intensity as Chigurh closes in. Meanwhile, the laconic Sheriff Ed Tom Bell (Tommy Lee Jones) blithely oversees the investigation even as he struggles to face the sheer enormity of the crimes he is attempting to thwart.

Description





No Country for Old Men (2007) IMDB







Source
No.Country.For.Old.Men.2007.1080p.Bluray.REMUX.AVC.DTS-HD.MA.5.1-EPSiLON

Media Information
General
Unique ID                   : 117595322561945531428697421030201068249 (0x58780909B210FAFC2707AC5E36158AD9)
Complete name               : No Country for Old Men (2007) (1080p BDRip x265 10bit EAC3 5.1 - r0b0t) [TAoE].mkv
Format                      : Matroska
Format version              : Version 4
File size                   : 4.78 GiB
Duration                    : 2 h 2 min
Overall bit rate            : 5 606 kb/s
Writing application         : Lavf58.29.100
Writing library             : Lavf58.29.100
ErrorDetectionType          : Per level 1

Video
ID                          : 1
Format                      : HEVC
Format/Info                 : High Efficiency Video Coding
Format profile              : Main 10@L4@Main
Codec ID                    : V_MPEGH/ISO/HEVC
Duration                    : 2 h 2 min
Bit rate                    : 4 766 kb/s
Width                       : 1 920 pixels
Height                      : 1 080 pixels
Display aspect ratio        : 16:9
Frame rate mode             : Variable
Frame rate                  : 23.976 FPS
Color space                 : YUV
Chroma subsampling          : 4:2:0
Bit depth                   : 10 bits
Bits/(Pixel*Frame)          : 0.096
Stream size                 : 4.07 GiB (85%)
Title                       : Encoded by r0b0t for TAoE using Shinguru V1.2
Writing library             : x265 3.2+35-acc5d16999e2:[Windows][GCC 9.2.1][64 bit] 10bit
Encoding settings           : cpuid=1111039 / frame-threads=5 / numa-pools=12,12,12,12 / wpp / no-pmode / no-pme / no-psnr / no-ssim / log-level=2 / input-csp=1 / input-res=1920x1080 / interlace=0 / total-frames=0 / level-idc=0 / high-tier=1 / uhd-bd=0 / ref=4 / no-allow-non-conformance / no-repeat-headers / annexb / no-aud / no-hrd / info / hash=0 / no-temporal-layers / open-gop / min-keyint=23 / keyint=250 / gop-lookahead=0 / bframes=8 / b-adapt=2 / b-pyramid / bframe-bias=0 / rc-lookahead=80 / lookahead-slices=4 / scenecut=40 / hist-scenecut=0 / radl=0 / no-splice / no-intra-refresh / ctu=64 / min-cu-size=8 / no-rect / no-amp / max-tu-size=32 / tu-inter-depth=1 / tu-intra-depth=1 / limit-tu=0 / rdoq-level=2 / dynamic-rd=0.00 / no-ssim-rd / signhide / no-tskip / nr-intra=0 / nr-inter=0 / no-constrained-intra / no-strong-intra-smoothing / max-merge=3 / limit-refs=3 / limit-modes / me=3 / subme=5 / merange=57 / temporal-mvp / no-frame-dup / no-hme / weightp / no-weightb / no-analyze-src-pics / deblock=0:0 / sao / no-sao-non-deblock / rd=4 / selective-sao=4 / no-early-skip / rskip / no-fast-intra / no-tskip-fast / no-cu-lossless / no-b-intra / no-splitrd-skip / rdpenalty=0 / psy-rd=1.30 / psy-rdoq=2.00 / no-rd-refine / no-lossless / cbqpoffs=0 / crqpoffs=0 / rc=crf / crf=19.0 / qcomp=0.60 / qpstep=4 / stats-write=0 / stats-read=0 / ipratio=1.40 / pbratio=1.30 / aq-mode=4 / aq-strength=1.10 / cutree / zone-count=0 / no-strict-cbr / qg-size=32 / no-rc-grain / qpmax=69 / qpmin=0 / no-const-vbv / sar=1 / overscan=0 / videoformat=5 / range=0 / colorprim=2 / transfer=2 / colormatrix=2 / chromaloc=0 / display-window=0 / cll=0,0 / min-luma=0 / max-luma=1023 / log2-max-poc-lsb=8 / vui-timing-info / vui-hrd-info / slices=1 / no-opt-qp-pps / no-opt-ref-list-length-pps / no-multi-pass-opt-rps / scenecut-bias=0.05 / hist-threshold=0.01 / no-opt-cu-delta-qp / no-aq-motion / no-hdr10 / no-hdr10-opt / no-dhdr10-opt / no-idr-recovery-sei / analysis-reuse-level=0 / analysis-save-reuse-level=0 / analysis-load-reuse-level=0 / scale-factor=0 / refine-intra=0 / refine-inter=0 / refine-mv=1 / refine-ctu-distortion=0 / no-limit-sao / ctu-info=0 / no-lowpass-dct / refine-analysis-type=0 / copy-pic=1 / max-ausize-factor=1.0 / no-dynamic-refine / no-single-sei / no-hevc-aq / no-svt / no-field / qp-adaptation-range=1.00 / no-scenecut-aware-qpconformance-window-offsets / right=0 / bottom=0
Language                    : English
Default                     : Yes
Forced                      : No
Color range                 : Limited

Audio
ID                          : 2
Format                      : E-AC-3
Format/Info                 : Enhanced AC-3
Commercial name             : Dolby Digital Plus
Codec ID                    : A_EAC3
Duration                    : 2 h 2 min
Bit rate mode               : Constant
Bit rate                    : 448 kb/s
Channel(s)                  : 6 channels
Channel layout              : L R C LFE Ls Rs
Sampling rate               : 48.0 kHz
Frame rate                  : 31.250 FPS (1536 SPF)
Bit depth                   : 24 bits
Compression mode            : Lossy
Stream size                 : 391 MiB (8%)
Writing library             : Lavc58.54.100 eac3
Language                    : English
Service kind                : Complete Main
Default                     : Yes
Forced                      : No

Text #1
ID                          : 3
Format                      : PGS
Codec ID                    : S_HDMV/PGS
Codec ID/Info               : Picture based subtitle format used on BDs/HD-DVDs
Duration                    : 1 h 55 min
Bit rate                    : 25.2 kb/s
Count of elements           : 1940
Stream size                 : 20.9 MiB (0%)
Language                    : English
Default                     : No
Forced                      : No

Text #2
ID                          : 4
Format                      : PGS
Codec ID                    : S_HDMV/PGS
Codec ID/Info               : Picture based subtitle format used on BDs/HD-DVDs
Duration                    : 2 h 1 min
Bit rate                    : 13.1 kb/s
Count of elements           : 1948
Stream size                 : 11.4 MiB (0%)
Language                    : Arabic
Default                     : No
Forced                      : No

Text #3
ID                          : 5
Format                      : PGS
Codec ID                    : S_HDMV/PGS
Codec ID/Info               : Picture based subtitle format used on BDs/HD-DVDs
Duration                    : 2 h 1 min
Bit rate                    : 20.5 kb/s
Count of elements           : 1920
Stream size                 : 17.8 MiB (0%)
Language                    : Bulgarian
Default                     : No
Forced                      : No

Text #4
ID                          : 6
Format                      : PGS
Codec ID                    : S_HDMV/PGS
Codec ID/Info               : Picture based subtitle format used on BDs/HD-DVDs
Duration                    : 2 h 1 min
Bit rate                    : 19.4 kb/s
Count of elements           : 1928
Stream size                 : 16.8 MiB (0%)
Language                    : Croatian
Default                     : No
Forced                      : No

Text #5
ID                          : 7
Format                      : PGS
Codec ID                    : S_HDMV/PGS
Codec ID/Info               : Picture based subtitle format used on BDs/HD-DVDs
Duration                    : 2 h 1 min
Bit rate                    : 20.1 kb/s
Count of elements           : 1958
Stream size                 : 17.5 MiB (0%)
Language                    : Czech
Default                     : No
Forced                      : No

Text #6
ID                          : 8
Format                      : PGS
Codec ID                    : S_HDMV/PGS
Codec ID/Info               : Picture based subtitle format used on BDs/HD-DVDs
Duration                    : 2 h 1 min
Bit rate                    : 22.0 kb/s
Count of elements           : 1904
Stream size                 : 19.1 MiB (0%)
Language                    : Estonian
Default                     : No
Forced                      : No

Text #7
ID                          : 9
Format                      : PGS
Codec ID                    : S_HDMV/PGS
Codec ID/Info               : Picture based subtitle format used on BDs/HD-DVDs
Duration                    : 2 h 1 min
Bit rate                    : 15.1 kb/s
Count of elements           : 1990
Stream size                 : 13.1 MiB (0%)
Language                    : Hebrew
Default                     : No
Forced                      : No

Text #8
ID                          : 10
Format                      : PGS
Codec ID                    : S_HDMV/PGS
Codec ID/Info               : Picture based subtitle format used on BDs/HD-DVDs
Duration                    : 2 h 1 min
Bit rate                    : 21.4 kb/s
Count of elements           : 1944
Stream size                 : 18.6 MiB (0%)
Language                    : Hungarian
Default                     : No
Forced                      : No

Text #9
ID                          : 11
Format                      : PGS
Codec ID                    : S_HDMV/PGS
Codec ID/Info               : Picture based subtitle format used on BDs/HD-DVDs
Duration                    : 2 h 1 min
Bit rate                    : 22.0 kb/s
Count of elements           : 1918
Stream size                 : 19.1 MiB (0%)
Language                    : Icelandic
Default                     : No
Forced                      : No

Text #10
ID                          : 12
Format                      : PGS
Codec ID                    : S_HDMV/PGS
Codec ID/Info               : Picture based subtitle format used on BDs/HD-DVDs
Duration                    : 2 h 1 min
Bit rate                    : 20.0 kb/s
Count of elements           : 1962
Stream size                 : 17.4 MiB (0%)
Language                    : Latvian
Default                     : No
Forced                      : No

Text #11
ID                          : 13
Format                      : PGS
Codec ID                    : S_HDMV/PGS
Codec ID/Info               : Picture based subtitle format used on BDs/HD-DVDs
Duration                    : 2 h 1 min
Bit rate                    : 21.1 kb/s
Count of elements           : 1906
Stream size                 : 18.4 MiB (0%)
Language                    : Lithuanian
Default                     : No
Forced                      : No

Text #12
ID                          : 14
Format                      : PGS
Codec ID                    : S_HDMV/PGS
Codec ID/Info               : Picture based subtitle format used on BDs/HD-DVDs
Duration                    : 2 h 1 min
Bit rate                    : 21.4 kb/s
Count of elements           : 1948
Stream size                 : 18.6 MiB (0%)
Language                    : Polish
Default                     : No
Forced                      : No

Text #13
ID                          : 15
Format                      : PGS
Codec ID                    : S_HDMV/PGS
Codec ID/Info               : Picture based subtitle format used on BDs/HD-DVDs
Duration                    : 2 h 1 min
Bit rate                    : 22.8 kb/s
Count of elements           : 1968
Stream size                 : 19.8 MiB (0%)
Language                    : Russian
Default                     : No
Forced                      : No

Text #14
ID                          : 16
Format                      : PGS
Codec ID                    : S_HDMV/PGS
Codec ID/Info               : Picture based subtitle format used on BDs/HD-DVDs
Duration                    : 2 h 1 min
Bit rate                    : 21.1 kb/s
Count of elements           : 1954
Stream size                 : 18.3 MiB (0%)
Language                    : Romanian
Default                     : No
Forced                      : No

Text #15
ID                          : 17
Format                      : PGS
Codec ID                    : S_HDMV/PGS
Codec ID/Info               : Picture based subtitle format used on BDs/HD-DVDs
Duration                    : 2 h 1 min
Bit rate                    : 17.0 kb/s
Count of elements           : 1896
Stream size                 : 14.8 MiB (0%)
Language                    : Slovenian
Default                     : No
Forced                      : No

Text #16
ID                          : 18
Format                      : PGS
Codec ID                    : S_HDMV/PGS
Codec ID/Info               : Picture based subtitle format used on BDs/HD-DVDs
Duration                    : 2 h 1 min
Bit rate                    : 23.1 kb/s
Count of elements           : 1968
Stream size                 : 20.1 MiB (0%)
Language                    : Slovak
Default                     : No
Forced                      : No

Text #17
ID                          : 19
Format                      : PGS
Codec ID                    : S_HDMV/PGS
Codec ID/Info               : Picture based subtitle format used on BDs/HD-DVDs
Duration                    : 2 h 1 min
Bit rate                    : 21.0 kb/s
Count of elements           : 1948
Stream size                 : 18.2 MiB (0%)
Language                    : Serbian
Default                     : No
Forced                      : No

Text #18
ID                          : 20
Format                      : PGS
Codec ID                    : S_HDMV/PGS
Codec ID/Info               : Picture based subtitle format used on BDs/HD-DVDs
Duration                    : 2 h 1 min
Bit rate                    : 24.0 kb/s
Count of elements           : 1956
Stream size                 : 20.8 MiB (0%)
Language                    : Turkish
Default                     : No
Forced                      : No

Text #19
ID                          : 21
Format                      : PGS
Codec ID                    : S_HDMV/PGS
Codec ID/Info               : Picture based subtitle format used on BDs/HD-DVDs
Duration                    : 2 h 1 min
Bit rate                    : 20.5 kb/s
Count of elements           : 1936
Stream size                 : 17.8 MiB (0%)
Language                    : Ukrainian
Default                     : No
Forced                      : No

Menu
00:00:00.000                : :Old Timers
00:03:44.474                : :Last Man Standing
00:13:41.904                : :The Getting Place
00:20:50.415                : :Call It, Friend-O
00:27:52.837                : :Deal Gone Wrong
00:36:58.382                : :Jackpot
00:41:52.426                : :Another Additional Room
00:52:17.050                : :On All Night
01:04:59.312                : :Medico
01:13:08.801                : :Ultimate Badass
01:20:05.801                : :The Best Deal
01:27:35.875                : :The One Right Tool
01:34:35.127                : :What's Coming
01:42:21.009                : :Overmatched
01:47:22.644                : :Best I Can Do
01:56:32.652                : :End Credits

Source Information
General
Unique ID                   : 84779572270617673154385610512253612186 (0x3FC7F3A202A934CB4F80AD037250709A)
Complete name               : No.Country.For.Old.Men.2007.1080p.Bluray.REMUX.AVC.DTS-HD.MA.5.1-EPSiLON.mkv
Format                      : Matroska
Format version              : Version 4
File size                   : 23.0 GiB
Duration                    : 2 h 2 min
Overall bit rate mode       : Variable
Overall bit rate            : 26.9 Mb/s
Encoded date                : UTC 2017-05-23 23:00:42
Writing application         : mkvmerge v12.0.0 ('Trust / Lust') 64bit
Writing library             : libebml v1.3.4 + libmatroska v1.4.5

Video
ID                          : 1
Format                      : AVC
Format/Info                 : Advanced Video Codec
Format profile              : High@L4.1
Format settings             : CABAC / 3 Ref Frames
Format settings, CABAC      : Yes
Format settings, Reference  : 3 frames
Codec ID                    : V_MPEG4/ISO/AVC
Duration                    : 2 h 2 min
Bit rate mode               : Variable
Bit rate                    : 23.3 Mb/s
Maximum bit rate            : 40.0 Mb/s
Width                       : 1 920 pixels
Height                      : 1 080 pixels
Display aspect ratio        : 16:9
Frame rate mode             : Constant
Frame rate                  : 23.976 (24000/1001) FPS
Standard                    : NTSC
Color space                 : YUV
Chroma subsampling          : 4:2:0
Bit depth                   : 8 bits
Scan type                   : Progressive
Bits/(Pixel*Frame)          : 0.468
Stream size                 : 19.9 GiB (86%)
Title                       : MPEG-4 AVC Video / 23267 kbps / 1080p / 23.976 fps / 16:9 / High Profile 4.1
Language                    : English
Default                     : Yes
Forced                      : No
Color range                 : Limited

Audio
ID                          : 2
Format                      : DTS XLL
Format/Info                 : Digital Theater Systems
Commercial name             : DTS-HD Master Audio
Codec ID                    : A_DTS
Duration                    : 2 h 2 min
Bit rate mode               : Variable
Bit rate                    : 3 284 kb/s
Channel(s)                  : 6 channels
Channel layout              : C L R Ls Rs LFE
Sampling rate               : 48.0 kHz
Frame rate                  : 93.750 FPS (512 SPF)
Bit depth                   : 24 bits
Compression mode            : Lossless
Stream size                 : 2.80 GiB (12%)
Language                    : English
Default                     : Yes
Forced                      : No

Text #1
ID                          : 3
Format                      : PGS
Codec ID                    : S_HDMV/PGS
Codec ID/Info               : Picture based subtitle format used on BDs/HD-DVDs
Duration                    : 1 h 55 min
Bit rate                    : 25.2 kb/s
Count of elements           : 1940
Stream size                 : 20.9 MiB (0%)
Language                    : English
Default                     : No
Forced                      : No

Text #2
ID                          : 4
Format                      : PGS
Codec ID                    : S_HDMV/PGS
Codec ID/Info               : Picture based subtitle format used on BDs/HD-DVDs
Duration                    : 2 h 1 min
Bit rate                    : 13.1 kb/s
Count of elements           : 1948
Stream size                 : 11.4 MiB (0%)
Language                    : Arabic
Default                     : No
Forced                      : No

Text #3
ID                          : 5
Format                      : PGS
Codec ID                    : S_HDMV/PGS
Codec ID/Info               : Picture based subtitle format used on BDs/HD-DVDs
Duration                    : 2 h 1 min
Bit rate                    : 20.5 kb/s
Count of elements           : 1920
Stream size                 : 17.8 MiB (0%)
Language                    : Bulgarian
Default                     : No
Forced                      : No

Text #4
ID                          : 6
Format                      : PGS
Codec ID                    : S_HDMV/PGS
Codec ID/Info               : Picture based subtitle format used on BDs/HD-DVDs
Duration                    : 2 h 1 min
Bit rate                    : 19.4 kb/s
Count of elements           : 1928
Stream size                 : 16.8 MiB (0%)
Language                    : Croatian
Default                     : No
Forced                      : No

Text #5
ID                          : 7
Format                      : PGS
Codec ID                    : S_HDMV/PGS
Codec ID/Info               : Picture based subtitle format used on BDs/HD-DVDs
Duration                    : 2 h 1 min
Bit rate                    : 20.1 kb/s
Count of elements           : 1958
Stream size                 : 17.5 MiB (0%)
Language                    : Czech
Default                     : No
Forced                      : No

Text #6
ID                          : 8
Format                      : PGS
Codec ID                    : S_HDMV/PGS
Codec ID/Info               : Picture based subtitle format used on BDs/HD-DVDs
Duration                    : 2 h 1 min
Bit rate                    : 22.0 kb/s
Count of elements           : 1904
Stream size                 : 19.1 MiB (0%)
Language                    : Estonian
Default                     : No
Forced                      : No

Text #7
ID                          : 9
Format                      : PGS
Codec ID                    : S_HDMV/PGS
Codec ID/Info               : Picture based subtitle format used on BDs/HD-DVDs
Duration                    : 2 h 1 min
Bit rate                    : 15.1 kb/s
Count of elements           : 1990
Stream size                 : 13.1 MiB (0%)
Language                    : Hebrew
Default                     : No
Forced                      : No

Text #8
ID                          : 10
Format                      : PGS
Codec ID                    : S_HDMV/PGS
Codec ID/Info               : Picture based subtitle format used on BDs/HD-DVDs
Duration                    : 2 h 1 min
Bit rate                    : 21.4 kb/s
Count of elements           : 1944
Stream size                 : 18.6 MiB (0%)
Language                    : Hungarian
Default                     : No
Forced                      : No

Text #9
ID                          : 11
Format                      : PGS
Codec ID                    : S_HDMV/PGS
Codec ID/Info               : Picture based subtitle format used on BDs/HD-DVDs
Duration                    : 2 h 1 min
Bit rate                    : 22.0 kb/s
Count of elements           : 1918
Stream size                 : 19.1 MiB (0%)
Language                    : Icelandic
Default                     : No
Forced                      : No

Text #10
ID                          : 12
Format                      : PGS
Codec ID                    : S_HDMV/PGS
Codec ID/Info               : Picture based subtitle format used on BDs/HD-DVDs
Duration                    : 2 h 1 min
Bit rate                    : 20.0 kb/s
Count of elements           : 1962
Stream size                 : 17.4 MiB (0%)
Language                    : Latvian
Default                     : No
Forced                      : No

Text #11
ID                          : 13
Format                      : PGS
Codec ID                    : S_HDMV/PGS
Codec ID/Info               : Picture based subtitle format used on BDs/HD-DVDs
Duration                    : 2 h 1 min
Bit rate                    : 21.1 kb/s
Count of elements           : 1906
Stream size                 : 18.4 MiB (0%)
Language                    : Lithuanian
Default                     : No
Forced                      : No

Text #12
ID                          : 14
Format                      : PGS
Codec ID                    : S_HDMV/PGS
Codec ID/Info               : Picture based subtitle format used on BDs/HD-DVDs
Duration                    : 2 h 1 min
Bit rate                    : 21.4 kb/s
Count of elements           : 1948
Stream size                 : 18.6 MiB (0%)
Language                    : Polish
Default                     : No
Forced                      : No

Text #13
ID                          : 15
Format                      : PGS
Codec ID                    : S_HDMV/PGS
Codec ID/Info               : Picture based subtitle format used on BDs/HD-DVDs
Duration                    : 2 h 1 min
Bit rate                    : 22.8 kb/s
Count of elements           : 1968
Stream size                 : 19.8 MiB (0%)
Language                    : Russian
Default                     : No
Forced                      : No

Text #14
ID                          : 16
Format                      : PGS
Codec ID                    : S_HDMV/PGS
Codec ID/Info               : Picture based subtitle format used on BDs/HD-DVDs
Duration                    : 2 h 1 min
Bit rate                    : 21.1 kb/s
Count of elements           : 1954
Stream size                 : 18.3 MiB (0%)
Language                    : Romanian
Default                     : No
Forced                      : No

Text #15
ID                          : 17
Format                      : PGS
Codec ID                    : S_HDMV/PGS
Codec ID/Info               : Picture based subtitle format used on BDs/HD-DVDs
Duration                    : 2 h 1 min
Bit rate                    : 17.0 kb/s
Count of elements           : 1896
Stream size                 : 14.8 MiB (0%)
Language                    : Slovenian
Default                     : No
Forced                      : No

Text #16
ID                          : 18
Format                      : PGS
Codec ID                    : S_HDMV/PGS
Codec ID/Info               : Picture based subtitle format used on BDs/HD-DVDs
Duration                    : 2 h 1 min
Bit rate                    : 23.1 kb/s
Count of elements           : 1968
Stream size                 : 20.1 MiB (0%)
Language                    : Slovak
Default                     : No
Forced                      : No

Text #17
ID                          : 19
Format                      : PGS
Codec ID                    : S_HDMV/PGS
Codec ID/Info               : Picture based subtitle format used on BDs/HD-DVDs
Duration                    : 2 h 1 min
Bit rate                    : 21.0 kb/s
Count of elements           : 1948
Stream size                 : 18.2 MiB (0%)
Language                    : Serbian
Default                     : No
Forced                      : No

Text #18
ID                          : 20
Format                      : PGS
Codec ID                    : S_HDMV/PGS
Codec ID/Info               : Picture based subtitle format used on BDs/HD-DVDs
Duration                    : 2 h 1 min
Bit rate                    : 24.0 kb/s
Count of elements           : 1956
Stream size                 : 20.8 MiB (0%)
Language                    : Turkish
Default                     : No
Forced                      : No

Text #19
ID                          : 21
Format                      : PGS
Codec ID                    : S_HDMV/PGS
Codec ID/Info               : Picture based subtitle format used on BDs/HD-DVDs
Duration                    : 2 h 1 min
Bit rate                    : 20.5 kb/s
Count of elements           : 1936
Stream size                 : 17.8 MiB (0%)
Language                    : Ukrainian
Default                     : No
Forced                      : No

Menu
00:00:00.000                : en:Old Timers
00:03:44.474                : en:Last Man Standing
00:13:41.904                : en:The Getting Place
00:20:50.415                : en:Call It, Friend-O
00:27:52.837                : en:Deal Gone Wrong
00:36:58.382                : en:Jackpot
00:41:52.426                : en:Another Additional Room
00:52:17.050                : en:On All Night
01:04:59.312                : en:Medico
01:13:08.801                : en:Ultimate Badass
01:20:05.801                : en:The Best Deal
01:27:35.875                : en:The One Right Tool
01:34:35.127                : en:What's Coming
01:42:21.009                : en:Overmatched
01:47:22.644                : en:Best I Can Do
01:56:32.652                : en:End Credits

Hello everyone,
We are TAoE, a small team of passionate encoders who love encoding. We try our best to provide you with high quality releases.

Requests for movies and shows are welcome.
We have a form for encode requests which can be found here
Encode requests form
submit your request and it will be added to our encoding request list
You can view our encoding request list here
Encode requests list


When or if we encode it will depend on if we can obtain a good source to encode with and
if one of the TAoE encoders chooses to encode it. Unfortunately we are not able to encode everything,
new members are welcome as that helps us encode more content!

If you would like to join TAoE submit your request here!
TAoE member applications form




.........................................................................................................................................

  User comments

Posted: 2020-06-03 07:04:49 (9Wks ago) Report

avatar
Reppoints: 5
Thank you for your work,  and time to do this stuff....... :P


Posted: 2020-06-03 07:05:52 (9Wks ago) Report

avatar
Reppoints: 65
No problemo! enjoy! B)


Post anonymous comment
:) :( :D :P :-) B) 8o :? 8) ;) :-* :-( :| O:-D :-@ :facepalm :o) brb :warn :help :bad :love :idea :bomb :!


CAPTCHA Image 

  Sitefriends