Torrent details for "Alita Battle Angel (2019) (1080p BDRip x265 10bit EAC3 5.1 - xtrem3x)[TAoE].mkv"    Log in to bookmark

Loading...
Loading...
Torrent details
Cover
Download
Torrent rating (0 rated)
Controls:
Category:
Language:
English English
Total Size:
5.48 GB
Info Hash:
2c06433b21b3b00e1381d3734792a0c827d43e62
Added By:
Goki:_trusted_uploader::_junkie:  
Added:  
08-06-2020 14:22
Views:
356
Health:
Seeds:
4
Leechers:
0
Completed:
353

File List (1) : 
Title:
Genre:
Action, Adventure, Romance, Sci-Fi, Thriller
Runtime:
122 min    -    Rating: 7.6
Plot:
Alita is a creation from an age of despair. Found by the mysterious Dr. Ido while trolling for cyborg parts, Alita becomes a lethal, dangerous being. She cannot remember who she is, or where she came from. But to Dr. Ido, the truth is all too clear. She is the one being who can break the cycle of death and destruction left behind from Tiphares. But to accomplish her true purpose, she must fight and kill. And that is where Alita's true significance comes to bear. She is an angel from heaven. She is an angel of death.

Description





Alita Battle Angel (2019) IMDB










Media Information

General
Unique ID                                : 332397434424871323005938187403919366760 (0xFA116AD0377BE8C679F65E64CF301A68)
Complete name                            : Alita Battle Angel (2019) (1080p BDRip x265 10bit EAC3 5.1 - xtrem3x)[TAoE].mkv
Format                                   : Matroska
Format version                           : Version 4
File size                                : 5.48 GiB
Duration                                 : 2 h 1 min
Overall bit rate                         : 6 434 kb/s
Writing application                      : Lavf58.29.100
Writing library                          : Lavf58.29.100
ErrorDetectionType                       : Per level 1

Video
ID                                       : 1
Format                                   : HEVC
Format/Info                              : High Efficiency Video Coding
Format profile                           : Main 10@L4@Main
Codec ID                                 : V_MPEGH/ISO/HEVC
Duration                                 : 2 h 1 min
Bit rate                                 : 5 904 kb/s
Width                                    : 1 920 pixels
Height                                   : 1 080 pixels
Display aspect ratio                     : 16:9
Frame rate mode                          : Variable
Frame rate                               : 23.976 FPS
Color space                              : YUV
Chroma subsampling                       : 4:2:0
Bit depth                                : 10 bits
Bits/(Pixel*Frame)                       : 0.119
Stream size                              : 5.03 GiB (92%)
Title                                    : Encoded by xtrem3x for TAoE using Shinguru V1.2
Writing library                          : x265 3.2+35-acc5d16999e2:[Windows][GCC 9.2.1][64 bit] 10bit
Encoding settings                        : cpuid=1111039 / frame-threads=3 / numa-pools=12 / wpp / no-pmode / no-pme / no-psnr / no-ssim / log-level=2 / input-csp=1 / input-res=1920x1080 / interlace=0 / total-frames=0 / level-idc=0 / high-tier=1 / uhd-bd=0 / ref=4 / no-allow-non-conformance / no-repeat-headers / annexb / no-aud / no-hrd / info / hash=0 / no-temporal-layers / open-gop / min-keyint=23 / keyint=250 / gop-lookahead=0 / bframes=8 / b-adapt=2 / b-pyramid / bframe-bias=0 / rc-lookahead=80 / lookahead-slices=4 / scenecut=40 / hist-scenecut=0 / radl=0 / no-splice / no-intra-refresh / ctu=64 / min-cu-size=8 / no-rect / no-amp / max-tu-size=32 / tu-inter-depth=1 / tu-intra-depth=1 / limit-tu=0 / rdoq-level=2 / dynamic-rd=0.00 / no-ssim-rd / signhide / no-tskip / nr-intra=0 / nr-inter=0 / no-constrained-intra / no-strong-intra-smoothing / max-merge=3 / limit-refs=3 / limit-modes / me=3 / subme=5 / merange=57 / temporal-mvp / no-frame-dup / no-hme / weightp / no-weightb / no-analyze-src-pics / deblock=0:0 / sao / no-sao-non-deblock / rd=4 / selective-sao=4 / no-early-skip / rskip / no-fast-intra / no-tskip-fast / no-cu-lossless / no-b-intra / no-splitrd-skip / rdpenalty=0 / psy-rd=1.30 / psy-rdoq=2.00 / no-rd-refine / no-lossless / cbqpoffs=0 / crqpoffs=0 / rc=crf / crf=18.0 / qcomp=0.60 / qpstep=4 / stats-write=0 / stats-read=0 / ipratio=1.40 / pbratio=1.30 / aq-mode=4 / aq-strength=1.10 / cutree / zone-count=0 / no-strict-cbr / qg-size=32 / no-rc-grain / qpmax=69 / qpmin=0 / no-const-vbv / sar=1 / overscan=0 / videoformat=5 / range=0 / colorprim=2 / transfer=2 / colormatrix=2 / chromaloc=0 / display-window=0 / cll=0,0 / min-luma=0 / max-luma=1023 / log2-max-poc-lsb=8 / vui-timing-info / vui-hrd-info / slices=1 / no-opt-qp-pps / no-opt-ref-list-length-pps / no-multi-pass-opt-rps / scenecut-bias=0.05 / hist-threshold=0.01 / no-opt-cu-delta-qp / no-aq-motion / no-hdr10 / no-hdr10-opt / no-dhdr10-opt / no-idr-recovery-sei / analysis-reuse-level=0 / analysis-save-reuse-level=0 / analysis-load-reuse-level=0 / scale-factor=0 / refine-intra=0 / refine-inter=0 / refine-mv=1 / refine-ctu-distortion=0 / no-limit-sao / ctu-info=0 / no-lowpass-dct / refine-analysis-type=0 / copy-pic=1 / max-ausize-factor=1.0 / no-dynamic-refine / no-single-sei / no-hevc-aq / no-svt / no-field / qp-adaptation-range=1.00 / no-scenecut-aware-qpconformance-window-offsets / right=0 / bottom=0
Default                                  : Yes
Forced                                   : No
Color range                              : Limited

Audio
ID                                       : 2
Format                                   : E-AC-3
Format/Info                              : Enhanced AC-3
Commercial name                          : Dolby Digital Plus
Codec ID                                 : A_EAC3
Duration                                 : 2 h 1 min
Bit rate mode                            : Constant
Bit rate                                 : 448 kb/s
Channel(s)                               : 6 channels
Channel layout                           : L R C LFE Ls Rs
Sampling rate                            : 48.0 kHz
Frame rate                               : 31.250 FPS (1536 SPF)
Bit depth                                : 24 bits
Compression mode                         : Lossy
Stream size                              : 391 MiB (7%)
Writing library                          : Lavc58.54.100 eac3
Language                                 : English
Service kind                             : Complete Main
Default                                  : Yes
Forced                                   : No

Text #1
ID                                       : 3
Format                                   : PGS
Codec ID                                 : S_HDMV/PGS
Codec ID/Info                            : Picture based subtitle format used on BDs/HD-DVDs
Duration                                 : 1 h 58 min
Bit rate                                 : 30.6 kb/s
Count of elements                        : 3180
Stream size                              : 26.0 MiB (0%)
Title                                    : English (SDH)
Language                                 : English
Default                                  : No
Forced                                   : No

Text #2
ID                                       : 4
Format                                   : PGS
Codec ID                                 : S_HDMV/PGS
Codec ID/Info                            : Picture based subtitle format used on BDs/HD-DVDs
Duration                                 : 2 h 1 min
Bit rate                                 : 25.3 kb/s
Count of elements                        : 2522
Stream size                              : 21.9 MiB (0%)
Title                                    : French
Language                                 : French
Default                                  : No
Forced                                   : No

Text #3
ID                                       : 5
Format                                   : PGS
Codec ID                                 : S_HDMV/PGS
Codec ID/Info                            : Picture based subtitle format used on BDs/HD-DVDs
Duration                                 : 2 h 1 min
Bit rate                                 : 23.5 kb/s
Count of elements                        : 2476
Stream size                              : 20.4 MiB (0%)
Title                                    : Spanish (Latin American)
Language                                 : Spanish
Default                                  : No
Forced                                   : No

Menu
00:00:00.000                             : :Chapter 01
00:03:28.625                             : :Chapter 02
00:07:51.680                             : :Chapter 03
00:10:07.982                             : :Chapter 04
00:13:06.703                             : :Chapter 05
00:15:06.739                             : :Chapter 06
00:18:04.542                             : :Chapter 07
00:22:58.711                             : :Chapter 08
00:25:35.325                             : :Chapter 09
00:31:40.899                             : :Chapter 10
00:33:29.216                             : :Chapter 11
00:36:32.816                             : :Chapter 12
00:38:30.892                             : :Chapter 13
00:42:05.481                             : :Chapter 14
00:45:58.214                             : :Chapter 15
00:48:31.450                             : :Chapter 16
00:52:57.007                             : :Chapter 17
00:55:14.353                             : :Chapter 18
01:00:39.761                             : :Chapter 19
01:02:56.564                             : :Chapter 20
01:05:16.788                             : :Chapter 21
01:10:50.496                             : :Chapter 22
01:13:37.288                             : :Chapter 23
01:16:35.216                             : :Chapter 24
01:18:52.227                             : :Chapter 25
01:22:48.297                             : :Chapter 26
01:24:55.340                             : :Chapter 27
01:28:25.217                             : :Chapter 28
01:33:18.551                             : :Chapter 29
01:36:08.763                             : :Chapter 30
01:41:54.692                             : :Chapter 31
01:45:23.442                             : :Chapter 32
01:48:16.490                             : :Chapter 33
01:51:43.655                             : :Chapter 34
01:54:43.668                             : :Chapter 35
01:56:51.504                             : :Chapter 36


Source Information

General
Complete name                            : Alita.Battle.Angel.2019.BluRay.1080p.DTS-HD.MA.7.1.AVC.REMUX-FraMeSToR.mkv
Format                                   : Matroska
Format version                           : Version 4
File size                                : 24.3 GiB
Duration                                 : 2 h 1 min
Overall bit rate mode                    : Variable
Overall bit rate                         : 28.5 Mb/s
Encoded date                             : UTC 2019-07-13 20:47:41
Writing application                      : mkvmerge v35.0.0 ('All The Love In The World') 64-bit
Writing library                          : libebml v1.3.9 + libmatroska v1.5.2

Video
ID                                       : 1
Format                                   : AVC
Format/Info                              : Advanced Video Codec
Format profile                           : High@L4.1
Format settings                          : CABAC / 2 Ref Frames
Format settings, CABAC                   : Yes
Format settings, Reference frames        : 2 frames
Codec ID                                 : V_MPEG4/ISO/AVC
Duration                                 : 2 h 1 min
Bit rate mode                            : Variable
Bit rate                                 : 23.5 Mb/s
Width                                    : 1 920 pixels
Height                                   : 1 080 pixels
Display aspect ratio                     : 16:9
Frame rate mode                          : Constant
Frame rate                               : 23.976 (24000/1001) FPS
Color space                              : YUV
Chroma subsampling                       : 4:2:0
Bit depth                                : 8 bits
Scan type                                : Progressive
Bits/(Pixel*Frame)                       : 0.473
Stream size                              : 20.0 GiB (83%)
Default                                  : Yes
Forced                                   : No

Audio
ID                                       : 2
Format                                   : DTS ES XLL
Format/Info                              : Digital Theater Systems
Commercial name                          : DTS-HD Master Audio
Codec ID                                 : A_DTS
Duration                                 : 2 h 1 min
Bit rate mode                            : Variable
Bit rate                                 : 4 893 kb/s
Channel(s)                               : 8 channels
Channel layout                           : C L R Ls Rs LFE Lb Rb
Sampling rate                            : 48.0 kHz
Frame rate                               : 93.750 FPS (512 SPF)
Bit depth                                : 24 bits
Compression mode                         : Lossless
Stream size                              : 4.17 GiB (17%)
Language                                 : English
Default                                  : Yes
Forced                                   : No

Text #1
ID                                       : 3
Format                                   : PGS
Codec ID                                 : S_HDMV/PGS
Codec ID/Info                            : Picture based subtitle format used on BDs/HD-DVDs
Duration                                 : 1 h 58 min
Bit rate                                 : 30.6 kb/s
Count of elements                        : 3180
Stream size                              : 26.0 MiB (0%)
Title                                    : English (SDH)
Language                                 : English
Default                                  : No
Forced                                   : No

Text #2
ID                                       : 4
Format                                   : PGS
Codec ID                                 : S_HDMV/PGS
Codec ID/Info                            : Picture based subtitle format used on BDs/HD-DVDs
Duration                                 : 2 h 1 min
Bit rate                                 : 25.3 kb/s
Count of elements                        : 2522
Stream size                              : 21.9 MiB (0%)
Title                                    : French
Language                                 : French
Default                                  : No
Forced                                   : No

Text #3
ID                                       : 5
Format                                   : PGS
Codec ID                                 : S_HDMV/PGS
Codec ID/Info                            : Picture based subtitle format used on BDs/HD-DVDs
Duration                                 : 2 h 1 min
Bit rate                                 : 23.5 kb/s
Count of elements                        : 2476
Stream size                              : 20.4 MiB (0%)
Title                                    : Spanish (Latin American)
Language                                 : Spanish
Default                                  : No
Forced                                   : No

Menu
00:00:00.000                             : en:Chapter 01
00:03:28.625                             : en:Chapter 02
00:07:51.680                             : en:Chapter 03
00:10:07.982                             : en:Chapter 04
00:13:06.703                             : en:Chapter 05
00:15:06.739                             : en:Chapter 06
00:18:04.542                             : en:Chapter 07
00:22:58.711                             : en:Chapter 08
00:25:35.325                             : en:Chapter 09
00:31:40.899                             : en:Chapter 10
00:33:29.216                             : en:Chapter 11
00:36:32.816                             : en:Chapter 12
00:38:30.892                             : en:Chapter 13
00:42:05.481                             : en:Chapter 14
00:45:58.214                             : en:Chapter 15
00:48:31.450                             : en:Chapter 16
00:52:57.007                             : en:Chapter 17
00:55:14.353                             : en:Chapter 18
01:00:39.761                             : en:Chapter 19
01:02:56.564                             : en:Chapter 20
01:05:16.788                             : en:Chapter 21
01:10:50.496                             : en:Chapter 22
01:13:37.288                             : en:Chapter 23
01:16:35.216                             : en:Chapter 24
01:18:52.227                             : en:Chapter 25
01:22:48.297                             : en:Chapter 26
01:24:55.340                             : en:Chapter 27
01:28:25.217                             : en:Chapter 28
01:33:18.551                             : en:Chapter 29
01:36:08.763                             : en:Chapter 30
01:41:54.692                             : en:Chapter 31
01:45:23.442                             : en:Chapter 32
01:48:16.490                             : en:Chapter 33
01:51:43.655                             : en:Chapter 34
01:54:43.668                             : en:Chapter 35
01:56:51.504                             : en:Chapter 36

Hello everyone,
We are TAoE, a small team of passionate encoders who love encoding. We try our best to provide you with high quality releases.

Requests for movies and shows are welcome.
We have a form for encode requests which can be found here
Encode requests form
submit your request and it will be added to our encoding request list
You can view our encoding request list here
Encode requests list


When or if we encode it will depend on if we can obtain a good source to encode with and
if one of the TAoE encoders chooses to encode it. Unfortunately we are not able to encode everything,
new members are welcome as that helps us encode more content!

If you would like to join TAoE submit your request here!
TAoE member applications form




.........................................................................................................................................


  User comments

Posted: 2020-06-08 14:59:10 (8Wks ago) Report

avatar
Reppoints: 0
All the uploads are really really awesome, the prints are majestic but there's only 1 problem! They don't Stretch to the entire screen! Doesn't fill in the screen!


Posted: 2020-06-08 16:06:23 (8Wks ago) Report

avatar
Reppoints: 65
We prefer to keep the original aspect ratio than stretch it to fill the entire screen.


Posted: 2020-06-08 17:00:32 (8Wks ago) Report

avatar
Reppoints: 0
They fill the entire screen if it's a 16:9 (1080p, 2160p etc) screen but if you're using an ultra-wide monitor than yes, you will get black bars on all sides.


Post anonymous comment
:) :( :D :P :-) B) 8o :? 8) ;) :-* :-( :| O:-D :-@ :facepalm :o) brb :warn :help :bad :love :idea :bomb :!


CAPTCHA Image 

  Sitefriends