Torrent details for "Spartacus Gods Of The Arena (2011) S01 (1080p BDRip x265 10bit TrueHD 5.1 - xtrem3x)[TAoE]"    Log in to bookmark

Loading...
Loading...
Torrent details
Cover
Download
Torrent rating (0 rated)
Controls:
Category:
Language:
English English
Total Size:
27.98 GB
Info Hash:
269c3172e4dfe6f0aff30cba9d1142f288cce7e4
Added By:
Goki:_trusted_uploader::_junkie:  
Added:  
22-06-2020 01:16
Views:
377
Health:
Seeds:
2
Leechers:
6
Completed:
251

File List (7) : 
Genre:
Action, Adventure, Biography, Drama, History, Romance
Runtime:
55 min    -    Rating: 8.5
Plot:
Before Spartacus struck down his first opponent in the arena, there were many gladiators who passed through the gates onto the sand.'Spartacus: Gods of the Arena' tells the story of the original Champion of the House of Batiatus: Gannicus, in a more ruthless time before Spartacus' arrival where honor was just finding its way into the arena.

Description





Spartacus Gods of the Arena (2011) IMDB

Note - Spartacus Gods of the Arena is a preguel that was filmed after Spartacus Blood and Sand (Season 01) and before Spartacus Vengeance (Season 02).
This contains spoilers which will ruin Spartacus Blood and Sand if you watch this first.

Spartacus should be viewed in the following order:

Blood and Sand
Gods of the Arena
Vengeance
War of the Damned

Enjoy!!


















Media Information

General
Unique ID                                : 47875140928141567950722341388388609178 (0x24046AB0299AAB06C00A5C7D53EF2C9A)
Complete name                            : Spartacus Gods Of The Arena (2011) S01E01 Past Transgressions (1080p BDRip x265 10bit TrueHD 5.1 - xtrem3x)[TAoE].mkv
Format                                   : Matroska
Format version                           : Version 4
File size                                : 4.37 GiB
Duration                                 : 52 min 48 s
Overall bit rate mode                    : Variable
Overall bit rate                         : 11.8 Mb/s
Encoded date                             : UTC 2020-06-20 18:41:48
Writing application                      : mkvmerge v47.0.0 ('Black Flag') 64-bit
Writing library                          : libebml v1.3.10 + libmatroska v1.5.2 / Lavf58.29.100

Video
ID                                       : 1
Format                                   : HEVC
Format/Info                              : High Efficiency Video Coding
Format profile                           : Main 10@L4@Main
Codec ID                                 : V_MPEGH/ISO/HEVC
Duration                                 : 52 min 48 s
Bit rate                                 : 10.0 Mb/s
Width                                    : 1 920 pixels
Height                                   : 1 080 pixels
Display aspect ratio                     : 16:9
Frame rate mode                          : Constant
Frame rate                               : 23.976 (24000/1001) FPS
Color space                              : YUV
Chroma subsampling                       : 4:2:0
Bit depth                                : 10 bits
Bits/(Pixel*Frame)                       : 0.202
Stream size                              : 3.70 GiB (85%)
Title                                    : Encoded by xtrem3x for TAoE using Shinguru V1.2
Writing library                          : x265 3.2+35-acc5d16999e2:[Windows][GCC 9.2.1][64 bit] 10bit
Encoding settings                        : cpuid=1111039 / frame-threads=3 / numa-pools=8 / wpp / no-pmode / no-pme / no-psnr / no-ssim / log-level=2 / input-csp=1 / input-res=1920x1080 / interlace=0 / total-frames=0 / level-idc=0 / high-tier=1 / uhd-bd=0 / ref=4 / no-allow-non-conformance / no-repeat-headers / annexb / no-aud / no-hrd / info / hash=0 / no-temporal-layers / open-gop / min-keyint=23 / keyint=250 / gop-lookahead=0 / bframes=8 / b-adapt=2 / b-pyramid / bframe-bias=0 / rc-lookahead=80 / lookahead-slices=4 / scenecut=40 / hist-scenecut=0 / radl=0 / no-splice / no-intra-refresh / ctu=64 / min-cu-size=8 / no-rect / no-amp / max-tu-size=32 / tu-inter-depth=1 / tu-intra-depth=1 / limit-tu=0 / rdoq-level=2 / dynamic-rd=0.00 / no-ssim-rd / signhide / no-tskip / nr-intra=0 / nr-inter=0 / no-constrained-intra / no-strong-intra-smoothing / max-merge=3 / limit-refs=3 / limit-modes / me=3 / subme=5 / merange=57 / temporal-mvp / no-frame-dup / no-hme / weightp / no-weightb / no-analyze-src-pics / deblock=0:0 / sao / no-sao-non-deblock / rd=4 / selective-sao=4 / no-early-skip / rskip / no-fast-intra / no-tskip-fast / no-cu-lossless / no-b-intra / no-splitrd-skip / rdpenalty=0 / psy-rd=1.30 / psy-rdoq=2.00 / no-rd-refine / no-lossless / cbqpoffs=0 / crqpoffs=0 / rc=crf / crf=20.0 / qcomp=0.60 / qpstep=4 / stats-write=0 / stats-read=0 / ipratio=1.40 / pbratio=1.30 / aq-mode=4 / aq-strength=1.10 / cutree / zone-count=0 / no-strict-cbr / qg-size=32 / no-rc-grain / qpmax=69 / qpmin=0 / no-const-vbv / sar=1 / overscan=0 / videoformat=5 / range=0 / colorprim=2 / transfer=2 / colormatrix=2 / chromaloc=0 / display-window=0 / cll=0,0 / min-luma=0 / max-luma=1023 / log2-max-poc-lsb=8 / vui-timing-info / vui-hrd-info / slices=1 / no-opt-qp-pps / no-opt-ref-list-length-pps / no-multi-pass-opt-rps / scenecut-bias=0.05 / hist-threshold=0.01 / no-opt-cu-delta-qp / no-aq-motion / no-hdr10 / no-hdr10-opt / no-dhdr10-opt / no-idr-recovery-sei / analysis-reuse-level=0 / analysis-save-reuse-level=0 / analysis-load-reuse-level=0 / scale-factor=0 / refine-intra=0 / refine-inter=0 / refine-mv=1 / refine-ctu-distortion=0 / no-limit-sao / ctu-info=0 / no-lowpass-dct / refine-analysis-type=0 / copy-pic=1 / max-ausize-factor=1.0 / no-dynamic-refine / no-single-sei / no-hevc-aq / no-svt / no-field / qp-adaptation-range=1.00 / no-scenecut-aware-qpconformance-window-offsets / right=0 / bottom=0
Language                                 : English
Default                                  : Yes
Forced                                   : No
Color range                              : Limited

Audio #1
ID                                       : 2
Format                                   : MLP FBA
Format/Info                              : Meridian Lossless Packing FBA
Commercial name                          : Dolby TrueHD
Codec ID                                 : A_TRUEHD
Duration                                 : 52 min 48 s
Bit rate mode                            : Variable
Bit rate                                 : 1 523 kb/s
Maximum bit rate                         : 2 688 kb/s
Channel(s)                               : 6 channels
Channel layout                           : L R C LFE Ls Rs
Sampling rate                            : 48.0 kHz
Frame rate                               : 1 200.000 FPS (40 SPF)
Compression mode                         : Lossless
Stream size                              : 575 MiB (13%)
Language                                 : English
Default                                  : Yes
Forced                                   : No

Audio #2
ID                                       : 3
Format                                   : AC-3
Format/Info                              : Audio Coding 3
Commercial name                          : Dolby Digital
Codec ID                                 : A_AC3
Duration                                 : 52 min 48 s
Bit rate mode                            : Constant
Bit rate                                 : 192 kb/s
Channel(s)                               : 2 channels
Channel layout                           : L R
Sampling rate                            : 48.0 kHz
Frame rate                               : 31.250 FPS (1536 SPF)
Bit depth                                : 16 bits
Compression mode                         : Lossy
Stream size                              : 72.5 MiB (2%)
Title                                    : Commentary By Executive Producer Rob Tapert, Costume Designer Barbara Darragh and Production Designer Iain Aitken / Dolby Digital Audio / 2.0 / 48 kHz / 192 kbps
Language                                 : English
Service kind                             : Complete Main
Default                                  : No
Forced                                   : No

Text #1
ID                                       : 4
Format                                   : PGS
Muxing mode                              : zlib
Codec ID                                 : S_HDMV/PGS
Codec ID/Info                            : Picture based subtitle format used on BDs/HD-DVDs
Duration                                 : 50 min 37 s
Bit rate                                 : 55.1 kb/s
Count of elements                        : 1584
Stream size                              : 20.0 MiB (0%)
Language                                 : English
Default                                  : No
Forced                                   : No

Text #2
ID                                       : 5
Format                                   : PGS
Muxing mode                              : zlib
Codec ID                                 : S_HDMV/PGS
Codec ID/Info                            : Picture based subtitle format used on BDs/HD-DVDs
Duration                                 : 50 min 23 s
Bit rate                                 : 55.2 kb/s
Count of elements                        : 1456
Stream size                              : 19.9 MiB (0%)
Language                                 : Spanish
Default                                  : No
Forced                                   : No

Menu
00:00:00.000                             : : Chapter 1
00:13:36.774                             : : Chapter 2
00:25:17.516                             : : Chapter 3
00:35:20.118                             : : Chapter 4
00:45:47.954                             : : Chapter 5
00:50:55.010                             : : Chapter 6


Source Information

Spartacus.Gods.Of.The.Arena.1080p.BluRay.REMUX.AVC.TrueHD.5.1-EPSiLON (61.8GB)

Hello everyone,
We are TAoE, a small team of passionate encoders who love encoding. We try our best to provide you with high quality releases.

Requests for movies and shows are welcome.
We have a form for encode requests which can be found here
Encode requests form
submit your request and it will be added to our encoding request list
You can view our encoding request list here
Encode requests list


When or if we encode it will depend on if we can obtain a good source to encode with and
if one of the TAoE encoders chooses to encode it. Unfortunately we are not able to encode everything,
new members are welcome as that helps us encode more content!

If you would like to join TAoE submit your request here!
TAoE member applications form




.........................................................................................................................................


Similar torrents

Name 
DL
Uploader
Size 
S/L 
Added

  User comments

No comments have been posted yet.


Post anonymous comment
:) :( :D :P :-) B) 8o :? 8) ;) :-* :-( :| O:-D :-@ :facepalm :o) brb :warn :help :bad :love :idea :bomb :!


CAPTCHA Image 

  Sitefriends