Torrent details for "The Jetsons Meet the Flintstones (1987) (1080p DVDRip AI Upscale x265 10bit AC3 2.0 - Frys) [TAoE].m..."    Log in to bookmark

Loading...
Loading...
Torrent details
Staff pick! This torrent was recommended by Ange1:_moderator::_female::_sitelover::_sun: on 2020-07-08 12:37:47.
Cover
Download
Torrent rating (0 rated)
Controls:
Category:
Language:
English English
Total Size:
4.41 GB
Info Hash:
e4d078dff22f8e6d32b125917d1a0d942d913cfe
Added By:
Goki:_trusted_uploader::_junkie:  
Added:  
07-07-2020 09:53
Views:
1,651
Health:
Seeds:
7
Leechers:
0
Completed:
813

File List (1) : 
Genre:
Animation, Comedy, Family, Romance, Sci-Fi
Runtime:
92 min    -    Rating: 6.6
Plot:
Fred Flintstone and George Jetson have some things in common: They have back breaking jobs and families to support, but they soon find out a little more about one another one peculiar day when George Jetson's son Elroy builds a time machine, the family thinks it a joke but agrees to try it out anyway. It was built to take them further into the future, but instead (thanks to Astro) they get sent back to Prehistorica Days. Back to the town of Bedrock. On vacation, Fred and Wilma Flintstone, Barney and Betty Rubble, meet the Jetsons and think them to be beings from another universe. Fred passes George off as his cousin and all goes well, until the time machine accidentally transports the Flintstones into the future, so while the Flintstones and Rubbles adjust to a space-age, robotic, automatic life, the Jetsons have to adjust to a rocky, stony, pedal car, no-shoe, no picture-phone, no-Mr. Spacely stone-age life. Meanwhile, Henry Orbit and Rosie have built a new time machine and Rosie goes off to find the Jetsons, she meets Robin Hood and many other famous faces. Will the Jetsons ever see their space city again? Will the Flintstones ever see Bedrock again? Will Fred keep his job with M

Description


Hello everyone,
We are TAoE, a small team of passionate encoders who love encoding. We try our best to provide you with high quality releases.

Requests for movies and shows are welcome.
We have a form for encode requests which can be found here
Encode requests form
submit your request and it will be added to our encoding request list
You can view our encoding request list here
Encode requests list


When or if we encode it will depend on if we can obtain a good source to encode with and
if one of the TAoE encoders chooses to encode it. Unfortunately we are not able to encode everything,
new members are welcome as that helps us encode more content!

If you would like to join TAoE submit your request here!
TAoE member applications form




The Jetsons Meet the Flintstones (1987) IMDB

Source




Upscale





Media Information
Format                                   : Matroska
Format version                           : Version 4
File size                                : 4.41 GiB
Duration                                 : 1 h 32 min
Overall bit rate                         : 6 855 kb/s
Movie name                               : The Jetsons Meet the Flintstones (1987) (1080p DVDRip AI Upscale x265 10bit AC3 2.0 - Frys) [TAoE].mkv
Encoded date                             : UTC 2020-07-05 12:37:23
Writing application                      : mkvmerge v47.0.0 ('Black Flag') 64-bit
Writing library                          : libebml v1.3.10 + libmatroska v1.5.2

Video
ID                                       : 1
Format                                   : HEVC
Format/Info                              : High Efficiency Video Coding
Format profile                           : Main 10@L4@Main
Codec ID                                 : V_MPEGH/ISO/HEVC
Duration                                 : 1 h 32 min
Bit rate                                 : 6 661 kb/s
Width                                    : 1 440 pixels
Height                                   : 1 080 pixels
Display aspect ratio                     : 4:3
Frame rate mode                          : Constant
Frame rate                               : 29.970 (30000/1001) FPS
Color space                              : YUV
Chroma subsampling                       : 4:2:0
Bit depth                                : 10 bits
Bits/(Pixel*Frame)                       : 0.143
Stream size                              : 4.29 GiB (97%)
Writing library                          : x265 3.4+6-g73f96ff39:[Windows][GCC 11.0.0][64 bit] 10bit
Encoding settings                        : cpuid=1111039 / frame-threads=3 / numa-pools=12 / wpp / no-pmode / no-pme / no-psnr / no-ssim / log-level=2 / input-csp=1 / input-res=1440x1080 / interlace=0 / total-frames=165783 / level-idc=0 / high-tier=1 / uhd-bd=0 / ref=4 / no-allow-non-conformance / no-repeat-headers / annexb / no-aud / no-hrd / info / hash=0 / no-temporal-layers / open-gop / min-keyint=25 / keyint=250 / gop-lookahead=0 / bframes=8 / b-adapt=2 / b-pyramid / bframe-bias=0 / rc-lookahead=80 / lookahead-slices=4 / scenecut=40 / hist-scenecut=0 / radl=0 / no-splice / no-intra-refresh / ctu=64 / min-cu-size=8 / no-rect / no-amp / max-tu-size=32 / tu-inter-depth=1 / tu-intra-depth=1 / limit-tu=0 / rdoq-level=2 / dynamic-rd=0.00 / no-ssim-rd / signhide / no-tskip / nr-intra=0 / nr-inter=0 / no-constrained-intra / no-strong-intra-smoothing / max-merge=3 / limit-refs=3 / limit-modes / me=3 / subme=5 / merange=57 / temporal-mvp / no-frame-dup / no-hme / weightp / no-weightb / no-analyze-src-pics / deblock=0:0 / sao / no-sao-non-deblock / rd=4 / selective-sao=4 / no-early-skip / rskip / no-fast-intra / no-tskip-fast / no-cu-lossless / no-b-intra / no-splitrd-skip / rdpenalty=0 / psy-rd=1.30 / psy-rdoq=2.00 / no-rd-refine / no-lossless / cbqpoffs=0 / crqpoffs=0 / rc=crf / crf=22.0 / qcomp=0.60 / qpstep=4 / stats-write=0 / stats-read=0 / ipratio=1.40 / pbratio=1.30 / aq-mode=2 / aq-strength=1.10 / cutree / zone-count=0 / no-strict-cbr / qg-size=32 / no-rc-grain / qpmax=69 / qpmin=0 / no-const-vbv / sar=0 / overscan=0 / videoformat=5 / range=0 / colorprim=2 / transfer=2 / colormatrix=2 / chromaloc=0 / display-window=0 / cll=0,0 / min-luma=0 / max-luma=1023 / log2-max-poc-lsb=8 / vui-timing-info / vui-hrd-info / slices=1 / no-opt-qp-pps / no-opt-ref-list-length-pps / no-multi-pass-opt-rps / scenecut-bias=0.05 / hist-threshold=0.01 / no-opt-cu-delta-qp / no-aq-motion / no-hdr10 / no-hdr10-opt / no-dhdr10-opt / no-idr-recovery-sei / analysis-reuse-level=0 / analysis-save-reuse-level=0 / analysis-load-reuse-level=0 / scale-factor=0 / refine-intra=0 / refine-inter=0 / refine-mv=1 / refine-ctu-distortion=0 / no-limit-sao / ctu-info=0 / no-lowpass-dct / refine-analysis-type=0 / copy-pic=1 / max-ausize-factor=1.0 / no-dynamic-refine / no-single-sei / no-hevc-aq / no-svt / no-field / qp-adaptation-range=1.00 / no-scenecut-aware-qpconformance-window-offsets / right=0 / bottom=0 / decoder-max-rate=0
Default                                  : Yes
Forced                                   : No

Audio
ID                                       : 2
Format                                   : AC-3
Format/Info                              : Audio Coding 3
Commercial name                          : Dolby Digital
Codec ID                                 : A_AC3
Duration                                 : 1 h 32 min
Bit rate mode                            : Constant
Bit rate                                 : 192 kb/s
Channel(s)                               : 2 channels
Channel layout                           : L R
Sampling rate                            : 48.0 kHz
Frame rate                               : 31.250 FPS (1536 SPF)
Compression mode                         : Lossy
Delay relative to video                  : 67 ms
Stream size                              : 127 MiB (3%)
Title                                    : Stereo
Language                                 : English
Service kind                             : Complete Main
Default                                  : No
Forced                                   : No

Menu
00:00:00.000                             : en:Chapter 1
00:10:00.121                             : en:Chapter 2
00:20:00.221                             : en:Chapter 3
00:29:59.820                             : en:Chapter 4
00:39:59.919                             : en:Chapter 5
00:50:00.019                             : en:Chapter 6
01:00:00.118                             : en:Chapter 7
01:10:00.218                             : en:Chapter 8
01:19:59.817                             : en:Chapter 9
01:29:59.916                             : en:Chapter 10

Source
480p DVDRip Tooncore
Upscaled by Frys

Similar torrents

  No similar torrents were found.

  User comments

Posted: 2020-07-08 04:09:11 (4Wks ago) Report

avatar
Reppoints: 0
Thanks for sharing


Posted: 2020-07-08 09:25:38 (4Wks ago) Report

avatar
Reppoints: 65
No problemo enjoy!


Guest-1564
Posted: 2020-07-18 22:42:06 (3Wks ago) Report
Guest user
avatar
Reppoints: -100
Amazing, Thanks


Post anonymous comment
:) :( :D :P :-) B) 8o :? 8) ;) :-* :-( :| O:-D :-@ :facepalm :o) brb :warn :help :bad :love :idea :bomb :!


CAPTCHA Image 

  Sitefriends