Torrent details for "Red Dwarf (1988) S07 (1080p BDRip x265 10bit EAC3 2.0 - WEM)[TAoE]"    Log in to bookmark

Loading...
Loading...
Torrent details
Cover
Download
Torrent rating (0 rated)
Controls:
Category:
Language:
English English
Total Size:
7.07 GB
Info Hash:
f1771559fdb9ad344426f6146054ba3bbd501c7f
Added By:
Goki:_trusted_uploader::_junkie:  
Added:  
01-08-2020 07:14 (edited 01-08-2020 07:17) by Goki:_trusted_uploader::_junkie:
Views:
81
Health:
Seeds:
11
Leechers:
3
Completed:
131

File List (8) : 
Title:
Red Dwarf (1988)
Genre:
Comedy, Sci-Fi
Runtime:
30 min    -    Rating: 8.3
Director:
n/A
Plot:
An unambitious slob from Liverpool has been awakened from a high-tech stasis chamber 3 million years in the future to find he may be one of the last humans alive. Hopelessly lost in space, this crew of mostly sad-act bachelors kill time and share adventure aboard the mining ship Red Dwarf.

Description


Hello everyone,
We are TAoE, a small team of passionate encoders who love encoding. We try our best to provide you with high quality releases.

Requests for movies and shows are welcome.
We have a form for encode requests which can be found here
Encode requests form
submit your request and it will be added to our encoding request list
You can view our encoding request list here
Encode requests list


When or if we encode it will depend on if we can obtain a good source to encode with and
if one of the TAoE encoders chooses to encode it. Unfortunately we are not able to encode everything,
new members are welcome as that helps us encode more content!

If you would like to join TAoE submit your request here!
TAoE member applications form



Red Dwarf (1988) IMDB















Media Information
General
Unique ID                                : 29090445806616152149002469928679035819 (0x15E29DB698BD676BD46FBC82C9BCD3AB)
Complete name                            : Red Dwarf (1988) S07E01 - Tikka To Ride EXTENDED (1080p BDRip x265 10bit EAC3 2.0 - WEM)[TAoE].mkv
Format                                   : Matroska
Format version                           : Version 4
File size                                : 728 MiB
Duration                                 : 37 min 14 s
Overall bit rate                         : 2 733 kb/s
Writing application                      : Lavf58.29.100
Writing library                          : Lavf58.29.100
ErrorDetectionType                       : Per level 1

Video
ID                                       : 1
Format                                   : HEVC
Format/Info                              : High Efficiency Video Coding
Format profile                           : Main 10@L4@Main
Codec ID                                 : V_MPEGH/ISO/HEVC
Duration                                 : 37 min 14 s
Bit rate                                 : 2 289 kb/s
Width                                    : 1 440 pixels
Height                                   : 1 072 pixels
Display aspect ratio                     : 4:3
Frame rate mode                          : Variable
Frame rate                               : 25.000 FPS
Color space                              : YUV
Chroma subsampling                       : 4:2:0
Bit depth                                : 10 bits
Bits/(Pixel*Frame)                       : 0.059
Stream size                              : 610 MiB (84%)
Title                                    : Encoded by WEM for TAoE using Shinguru V1.9
Writing library                          : x265 3.2+35-acc5d16999e2:[Windows][GCC 9.2.1][64 bit] 10bit
Encoding settings                        : cpuid=1111039 / frame-threads=4 / numa-pools=24 / wpp / no-pmode / no-pme / no-psnr / no-ssim / log-level=2 / input-csp=1 / input-res=1440x1072 / interlace=0 / total-frames=0 / level-idc=0 / high-tier=1 / uhd-bd=0 / ref=4 / no-allow-non-conformance / no-repeat-headers / annexb / no-aud / no-hrd / info / hash=0 / no-temporal-layers / open-gop / min-keyint=25 / keyint=250 / gop-lookahead=0 / bframes=8 / b-adapt=2 / b-pyramid / bframe-bias=0 / rc-lookahead=80 / lookahead-slices=4 / scenecut=40 / hist-scenecut=0 / radl=0 / no-splice / no-intra-refresh / ctu=64 / min-cu-size=8 / no-rect / no-amp / max-tu-size=32 / tu-inter-depth=1 / tu-intra-depth=1 / limit-tu=0 / rdoq-level=2 / dynamic-rd=0.00 / no-ssim-rd / signhide / no-tskip / nr-intra=0 / nr-inter=0 / no-constrained-intra / no-strong-intra-smoothing / max-merge=3 / limit-refs=3 / limit-modes / me=3 / subme=5 / merange=57 / temporal-mvp / no-frame-dup / no-hme / weightp / no-weightb / no-analyze-src-pics / deblock=0:0 / sao / no-sao-non-deblock / rd=4 / selective-sao=4 / no-early-skip / rskip / no-fast-intra / no-tskip-fast / no-cu-lossless / no-b-intra / no-splitrd-skip / rdpenalty=0 / psy-rd=1.30 / psy-rdoq=2.00 / no-rd-refine / no-lossless / cbqpoffs=0 / crqpoffs=0 / rc=crf / crf=21.0 / qcomp=0.60 / qpstep=4 / stats-write=0 / stats-read=0 / ipratio=1.40 / pbratio=1.30 / aq-mode=4 / aq-strength=1.10 / cutree / zone-count=0 / no-strict-cbr / qg-size=32 / no-rc-grain / qpmax=69 / qpmin=0 / no-const-vbv / sar=1 / overscan=0 / videoformat=5 / range=0 / colorprim=2 / transfer=2 / colormatrix=2 / chromaloc=0 / display-window=0 / cll=0,0 / min-luma=0 / max-luma=1023 / log2-max-poc-lsb=8 / vui-timing-info / vui-hrd-info / slices=1 / no-opt-qp-pps / no-opt-ref-list-length-pps / no-multi-pass-opt-rps / scenecut-bias=0.05 / hist-threshold=0.01 / no-opt-cu-delta-qp / no-aq-motion / no-hdr10 / no-hdr10-opt / no-dhdr10-opt / no-idr-recovery-sei / analysis-reuse-level=0 / analysis-save-reuse-level=0 / analysis-load-reuse-level=0 / scale-factor=0 / refine-intra=0 / refine-inter=0 / refine-mv=1 / refine-ctu-distortion=0 / no-limit-sao / ctu-info=0 / no-lowpass-dct / refine-analysis-type=0 / copy-pic=1 / max-ausize-factor=1.0 / no-dynamic-refine / no-single-sei / no-hevc-aq / no-svt / no-field / qp-adaptation-range=1.00 / no-scenecut-aware-qpconformance-window-offsets / right=0 / bottom=0
Default                                  : Yes
Forced                                   : No
Color range                              : Limited

Audio #1
ID                                       : 2
Format                                   : E-AC-3
Format/Info                              : Enhanced AC-3
Commercial name                          : Dolby Digital Plus
Codec ID                                 : A_EAC3
Duration                                 : 37 min 14 s
Bit rate mode                            : Constant
Bit rate                                 : 192 kb/s
Channel(s)                               : 2 channels
Channel layout                           : L R
Sampling rate                            : 48.0 kHz
Frame rate                               : 31.250 FPS (1536 SPF)
Bit depth                                : 16 bits
Compression mode                         : Lossy
Stream size                              : 181 MiB (25%)
Writing library                          : Lavc58.54.100 eac3
Language                                 : English
Service kind                             : Complete Main
Default                                  : Yes
Forced                                   : No

Audio #2
ID                                       : 3
Format                                   : E-AC-3
Format/Info                              : Enhanced AC-3
Commercial name                          : Dolby Digital Plus
Codec ID                                 : A_EAC3
Duration                                 : 37 min 14 s
Bit rate mode                            : Constant
Bit rate                                 : 192 kb/s
Channel(s)                               : 2 channels
Channel layout                           : L R
Sampling rate                            : 48.0 kHz
Frame rate                               : 31.250 FPS (1536 SPF)
Bit depth                                : 32 bits
Compression mode                         : Lossy
Stream size                              : 51.1 MiB (7%)
Title                                    : Commentary by actors Craig Charles, Chris Barrie, Robert Llewellyn and Danny John-Jules
Writing library                          : Lavc58.54.100 eac3
Language                                 : English
Service kind                             : Complete Main
Default                                  : No
Forced                                   : No

Text
ID                                       : 4
Format                                   : PGS
Codec ID                                 : S_HDMV/PGS
Codec ID/Info                            : Picture based subtitle format used on BDs/HD-DVDs
Duration                                 : 36 min 59 s
Bit rate                                 : 56.4 kb/s
Count of elements                        : 1266
Stream size                              : 14.7 MiB (2%)
Title                                    : English (SDH)
Language                                 : English
Default                                  : No
Forced                                   : No

Menu
00:00:00.000                             : :Lister's Journal
00:03:32.840                             : :Titles
00:04:02.120                             : :The Curry Supplies
00:11:04.560                             : :Switching Chips
00:15:32.200                             : :Arrivals In Dallas
00:20:10.800                             : :Consequences
00:24:03.720                             : :Campfire Meal
00:27:55.640                             : :John F. Kennedy
00:36:17.480                             : :Credits

Source Information
General
Unique ID                                : 26193647178099097446374424657867377913 (0x13B4B6839551E56E8506DDA5652D0CF9)
Complete name                            : Red.Dwarf.S07E02.Stoke.Me.a.Clipper.1080p.FLAC.2.0.AVC.REMUX-FraMeSToR.mkv
Format                                   : Matroska
Format version                           : Version 4
File size                                : 5.33 GiB
Duration                                 : 29 min 14 s
Overall bit rate mode                    : Variable
Overall bit rate                         : 26.1 Mb/s
Encoded date                             : UTC 2019-08-19 09:45:25
Writing application                      : mkvmerge v35.0.0 ('All The Love In The World') 64-bit
Writing library                          : libebml v1.3.9 + libmatroska v1.5.2

Video
ID                                       : 1
Format                                   : AVC
Format/Info                              : Advanced Video Codec
Format profile                           : High@L4.1
Format settings                          : CABAC / 4 Ref Frames
Format settings, CABAC                   : Yes
Format settings, Reference frames        : 4 frames
Codec ID                                 : V_MPEG4/ISO/AVC
Duration                                 : 29 min 14 s
Bit rate mode                            : Variable
Bit rate                                 : 24.9 Mb/s
Maximum bit rate                         : 33.0 Mb/s
Width                                    : 1 920 pixels
Height                                   : 1 080 pixels
Display aspect ratio                     : 16:9
Frame rate mode                          : Constant
Frame rate                               : 25.000 FPS
Color space                              : YUV
Chroma subsampling                       : 4:2:0
Bit depth                                : 8 bits
Scan type                                : MBAFF
Scan type, store method                  : Interleaved fields
Scan order                               : Top Field First
Bits/(Pixel*Frame)                       : 0.480
Stream size                              : 5.09 GiB (95%)
Default                                  : Yes
Forced                                   : No

Audio #1
ID                                       : 2
Format                                   : FLAC
Format/Info                              : Free Lossless Audio Codec
Codec ID                                 : A_FLAC
Duration                                 : 29 min 14 s
Bit rate mode                            : Variable
Bit rate                                 : 703 kb/s
Channel(s)                               : 2 channels
Channel layout                           : L R
Sampling rate                            : 48.0 kHz
Frame rate                               : 11.719 FPS (4096 SPF)
Bit depth                                : 16 bits
Compression mode                         : Lossless
Stream size                              : 147 MiB (3%)
Writing library                          : libFLAC 1.2.1 (UTC 2007-09-17)
Language                                 : English
Default                                  : Yes
Forced                                   : No

Audio #2
ID                                       : 3
Format                                   : AC-3
Format/Info                              : Audio Coding 3
Commercial name                          : Dolby Digital
Codec ID                                 : A_AC3
Duration                                 : 29 min 14 s
Bit rate mode                            : Constant
Bit rate                                 : 448 kb/s
Channel(s)                               : 2 channels
Channel layout                           : L R
Sampling rate                            : 48.0 kHz
Frame rate                               : 31.250 FPS (1536 SPF)
Compression mode                         : Lossy
Stream size                              : 93.7 MiB (2%)
Title                                    : Commentary by actors Craig Charles, Chris Barrie, Robert Llewellyn and Danny John-Jules
Language                                 : English
Service kind                             : Complete Main
Default                                  : No
Forced                                   : No

Text
ID                                       : 4
Format                                   : PGS
Codec ID                                 : S_HDMV/PGS
Codec ID/Info                            : Picture based subtitle format used on BDs/HD-DVDs
Duration                                 : 28 min 11 s
Bit rate                                 : 46.2 kb/s
Count of elements                        : 848
Stream size                              : 9.33 MiB (0%)
Title                                    : English (SDH)
Language                                 : English
Default                                  : No
Forced                                   : No

Menu
00:00:00.000                             : en:Ace Rimmer
00:04:41.000                             : en:Titles
00:05:11.960                             : en:Getting Medieval
00:09:47.400                             : en:Ace Arrives
00:13:25.240                             : en:The Legend
00:17:19.320                             : en:Training
00:20:10.440                             : en:Rising To The Challenge
00:24:23.600                             : en:Farewell To Rimmer
00:28:15.840                             : en:Credits

  User comments

No comments have been posted yet.


Post anonymous comment
:) :( :D :P :-) B) 8o :? 8) ;) :-* :-( :| O:-D :-@ :facepalm :o) brb :warn :help :bad :love :idea :bomb :!


CAPTCHA Image 

  Sitefriends