Torrent details for "The Last Boy Scout (1991) (1080p BDRip x265 10bit EAC3 5.1 - r0b0t) [TAoE].mkv"    Log in to bookmark

Loading...
Loading...
Torrent details
Cover
Download
Torrent rating (0 rated)
Controls:
Category:
Language:
English English
Total Size:
6.15 GB
Info Hash:
9682f63222335ca7fb996c8b6e2585a86174832f
Added By:
Goki:_trusted_uploader::_junkie:  
Added:  
01-08-2020 15:48
Views:
79
Health:
Seeds:
12
Leechers:
3
Completed:
276

File List (1) : 
Title:
Genre:
Action, Comedy, Crime, Thriller
Runtime:
105 min    -    Rating: 7
Director:
Plot:
A down and out cynical detective teams up with a down and out ex-quarterback to try and solve a murder case involving a pro football team and a politician.

Description


Hello everyone,
We are TAoE, a small team of passionate encoders who love encoding. We try our best to provide you with high quality releases.

Requests for movies and shows are welcome.
We have a form for encode requests which can be found here
Encode requests form
submit your request and it will be added to our encoding request list
You can view our encoding request list here
Encode requests list


When or if we encode it will depend on if we can obtain a good source to encode with and
if one of the TAoE encoders chooses to encode it. Unfortunately we are not able to encode everything,
new members are welcome as that helps us encode more content!

If you would like to join TAoE submit your request here!
TAoE member applications form




The Last Boy Scout (1991) IMDB










Source
The.Last.Boy.Scout.1991.BluRay.1080p.DTS-HD.MA.5.1.VC-1.REMUX-FraMeSToR

Media Information
General
Unique ID                   : 254499727011741297638350867045871371825 (0xBF76DD5076B67D73F9690F0D5065C631)
Complete name               : The Last Boy Scout (1991) (1080p BDRip x265 10bit EAC3 5.1 - r0b0t) [TAoE].mkv
Format                      : Matroska
Format version              : Version 4
File size                   : 6.15 GiB
Duration                    : 1 h 45 min
Overall bit rate            : 8 355 kb/s
Writing application         : Lavf58.29.100
Writing library             : Lavf58.29.100
ErrorDetectionType          : Per level 1

Video
ID                          : 1
Format                      : HEVC
Format/Info                 : High Efficiency Video Coding
Format profile              : Main 10@L4@Main
Codec ID                    : V_MPEGH/ISO/HEVC
Duration                    : 1 h 45 min
Bit rate                    : 7 370 kb/s
Width                       : 1 920 pixels
Height                      : 800 pixels
Display aspect ratio        : 2.40:1
Frame rate mode             : Constant
Frame rate                  : 23.976 (24000/1001) FPS
Color space                 : YUV
Chroma subsampling          : 4:2:0
Bit depth                   : 10 bits
Bits/(Pixel*Frame)          : 0.200
Stream size                 : 5.43 GiB (88%)
Title                       : Encoded by r0b0t for TAoE using Shinguru V1.9
Writing library             : x265 3.2+35-acc5d16999e2:[Windows][GCC 9.2.1][64 bit] 10bit
Encoding settings           : cpuid=1111039 / frame-threads=4 / numa-pools=16 / wpp / no-pmode / no-pme / no-psnr / no-ssim / log-level=2 / input-csp=1 / input-res=1920x800 / interlace=0 / total-frames=0 / level-idc=0 / high-tier=1 / uhd-bd=0 / ref=4 / no-allow-non-conformance / no-repeat-headers / annexb / no-aud / no-hrd / info / hash=0 / no-temporal-layers / open-gop / min-keyint=23 / keyint=250 / gop-lookahead=0 / bframes=8 / b-adapt=2 / b-pyramid / bframe-bias=0 / rc-lookahead=80 / lookahead-slices=4 / scenecut=40 / hist-scenecut=0 / radl=0 / no-splice / no-intra-refresh / ctu=64 / min-cu-size=8 / no-rect / no-amp / max-tu-size=32 / tu-inter-depth=1 / tu-intra-depth=1 / limit-tu=0 / rdoq-level=2 / dynamic-rd=0.00 / no-ssim-rd / signhide / no-tskip / nr-intra=0 / nr-inter=0 / no-constrained-intra / no-strong-intra-smoothing / max-merge=3 / limit-refs=3 / limit-modes / me=3 / subme=5 / merange=57 / temporal-mvp / no-frame-dup / no-hme / weightp / no-weightb / no-analyze-src-pics / deblock=0:0 / sao / no-sao-non-deblock / rd=4 / selective-sao=4 / no-early-skip / rskip / no-fast-intra / no-tskip-fast / no-cu-lossless / no-b-intra / no-splitrd-skip / rdpenalty=0 / psy-rd=1.30 / psy-rdoq=2.00 / no-rd-refine / no-lossless / cbqpoffs=0 / crqpoffs=0 / rc=crf / crf=19.0 / qcomp=0.60 / qpstep=4 / stats-write=0 / stats-read=0 / ipratio=1.40 / pbratio=1.30 / aq-mode=4 / aq-strength=1.10 / cutree / zone-count=0 / no-strict-cbr / qg-size=32 / no-rc-grain / qpmax=69 / qpmin=0 / no-const-vbv / sar=1 / overscan=0 / videoformat=5 / range=0 / colorprim=2 / transfer=2 / colormatrix=2 / chromaloc=0 / display-window=0 / cll=0,0 / min-luma=0 / max-luma=1023 / log2-max-poc-lsb=8 / vui-timing-info / vui-hrd-info / slices=1 / no-opt-qp-pps / no-opt-ref-list-length-pps / no-multi-pass-opt-rps / scenecut-bias=0.05 / hist-threshold=0.01 / no-opt-cu-delta-qp / no-aq-motion / no-hdr10 / no-hdr10-opt / no-dhdr10-opt / no-idr-recovery-sei / analysis-reuse-level=0 / analysis-save-reuse-level=0 / analysis-load-reuse-level=0 / scale-factor=0 / refine-intra=0 / refine-inter=0 / refine-mv=1 / refine-ctu-distortion=0 / no-limit-sao / ctu-info=0 / no-lowpass-dct / refine-analysis-type=0 / copy-pic=1 / max-ausize-factor=1.0 / no-dynamic-refine / no-single-sei / no-hevc-aq / no-svt / no-field / qp-adaptation-range=1.00 / no-scenecut-aware-qpconformance-window-offsets / right=0 / bottom=0
Default                     : Yes
Forced                      : No
Color range                 : Limited

Audio
ID                          : 2
Format                      : E-AC-3
Format/Info                 : Enhanced AC-3
Commercial name             : Dolby Digital Plus
Codec ID                    : A_EAC3
Duration                    : 1 h 45 min
Bit rate mode               : Constant
Bit rate                    : 448 kb/s
Channel(s)                  : 6 channels
Channel layout              : L R C LFE Ls Rs
Sampling rate               : 48.0 kHz
Frame rate                  : 31.250 FPS (1536 SPF)
Bit depth                   : 24 bits
Compression mode            : Lossy
Delay relative to video     : -42 ms
Stream size                 : 338 MiB (5%)
Writing library             : Lavc58.54.100 eac3
Language                    : English
Service kind                : Complete Main
Default                     : Yes
Forced                      : No

Text #1
ID                          : 3
Format                      : PGS
Codec ID                    : S_HDMV/PGS
Codec ID/Info               : Picture based subtitle format used on BDs/HD-DVDs
Duration                    : 1 h 42 min
Bit rate                    : 36.6 kb/s
Count of elements           : 2786
Stream size                 : 26.8 MiB (0%)
Title                       : English (SDH)
Language                    : English
Default                     : Yes
Forced                      : No

Text #2
ID                          : 4
Format                      : PGS
Codec ID                    : S_HDMV/PGS
Codec ID/Info               : Picture based subtitle format used on BDs/HD-DVDs
Duration                    : 1 h 44 min
Bit rate                    : 24.2 kb/s
Count of elements           : 2502
Stream size                 : 18.1 MiB (0%)
Title                       : French
Language                    : French
Default                     : No
Forced                      : No

Text #3
ID                          : 5
Format                      : PGS
Codec ID                    : S_HDMV/PGS
Codec ID/Info               : Picture based subtitle format used on BDs/HD-DVDs
Duration                    : 1 h 44 min
Bit rate                    : 29.2 kb/s
Count of elements           : 2680
Stream size                 : 21.8 MiB (0%)
Title                       : German (SDH)
Language                    : German
Default                     : No
Forced                      : No

Text #4
ID                          : 6
Format                      : PGS
Codec ID                    : S_HDMV/PGS
Codec ID/Info               : Picture based subtitle format used on BDs/HD-DVDs
Duration                    : 1 h 44 min
Bit rate                    : 29.0 kb/s
Count of elements           : 2642
Stream size                 : 21.7 MiB (0%)
Title                       : Italian
Language                    : Italian
Default                     : No
Forced                      : No

Text #5
ID                          : 7
Format                      : PGS
Codec ID                    : S_HDMV/PGS
Codec ID/Info               : Picture based subtitle format used on BDs/HD-DVDs
Duration                    : 1 h 44 min
Bit rate                    : 32.0 kb/s
Count of elements           : 2980
Stream size                 : 23.9 MiB (0%)
Title                       : Italian (SDH)
Language                    : Italian
Default                     : No
Forced                      : No

Text #6
ID                          : 8
Format                      : PGS
Codec ID                    : S_HDMV/PGS
Codec ID/Info               : Picture based subtitle format used on BDs/HD-DVDs
Duration                    : 1 h 42 min
Bit rate                    : 26.6 kb/s
Count of elements           : 2512
Stream size                 : 19.5 MiB (0%)
Title                       : Spanish (Castilian)
Language                    : Spanish
Default                     : No
Forced                      : No

Text #7
ID                          : 9
Format                      : PGS
Codec ID                    : S_HDMV/PGS
Codec ID/Info               : Picture based subtitle format used on BDs/HD-DVDs
Duration                    : 1 h 42 min
Bit rate                    : 22.4 kb/s
Count of elements           : 2460
Stream size                 : 16.4 MiB (0%)
Title                       : Dutch
Language                    : Dutch
Default                     : No
Forced                      : No

Text #8
ID                          : 10
Format                      : PGS
Codec ID                    : S_HDMV/PGS
Codec ID/Info               : Picture based subtitle format used on BDs/HD-DVDs
Duration                    : 1 h 44 min
Bit rate                    : 29.3 kb/s
Count of elements           : 2462
Stream size                 : 22.0 MiB (0%)
Title                       : Chinese (Mandarin Traditional)
Language                    : Chinese
Default                     : No
Forced                      : No

Text #9
ID                          : 11
Format                      : PGS
Codec ID                    : S_HDMV/PGS
Codec ID/Info               : Picture based subtitle format used on BDs/HD-DVDs
Duration                    : 1 h 44 min
Bit rate                    : 27.0 kb/s
Count of elements           : 2566
Stream size                 : 20.2 MiB (0%)
Title                       : Spanish (Latin American)
Language                    : Spanish
Default                     : No
Forced                      : No

Text #10
ID                          : 12
Format                      : PGS
Codec ID                    : S_HDMV/PGS
Codec ID/Info               : Picture based subtitle format used on BDs/HD-DVDs
Duration                    : 1 h 44 min
Bit rate                    : 29.6 kb/s
Count of elements           : 2430
Stream size                 : 22.2 MiB (0%)
Title                       : Portuguese (Brazilian)
Language                    : Portuguese
Default                     : No
Forced                      : No

Text #11
ID                          : 13
Format                      : PGS
Codec ID                    : S_HDMV/PGS
Codec ID/Info               : Picture based subtitle format used on BDs/HD-DVDs
Duration                    : 1 h 44 min
Bit rate                    : 24.9 kb/s
Count of elements           : 1984
Stream size                 : 18.6 MiB (0%)
Title                       : Bulgarian
Language                    : Bulgarian
Default                     : No
Forced                      : No

Text #12
ID                          : 14
Format                      : PGS
Codec ID                    : S_HDMV/PGS
Codec ID/Info               : Picture based subtitle format used on BDs/HD-DVDs
Duration                    : 1 h 44 min
Bit rate                    : 23.3 kb/s
Count of elements           : 2564
Stream size                 : 17.5 MiB (0%)
Title                       : Czech
Language                    : Czech
Default                     : No
Forced                      : No

Text #13
ID                          : 15
Format                      : PGS
Codec ID                    : S_HDMV/PGS
Codec ID/Info               : Picture based subtitle format used on BDs/HD-DVDs
Duration                    : 1 h 42 min
Bit rate                    : 24.4 kb/s
Count of elements           : 1784
Stream size                 : 17.8 MiB (0%)
Title                       : Danish
Language                    : Danish
Default                     : No
Forced                      : No

Text #14
ID                          : 16
Format                      : PGS
Codec ID                    : S_HDMV/PGS
Codec ID/Info               : Picture based subtitle format used on BDs/HD-DVDs
Duration                    : 1 h 42 min
Bit rate                    : 27.6 kb/s
Count of elements           : 1874
Stream size                 : 20.2 MiB (0%)
Title                       : Finnish
Language                    : Finnish
Default                     : No
Forced                      : No

Text #15
ID                          : 17
Format                      : PGS
Codec ID                    : S_HDMV/PGS
Codec ID/Info               : Picture based subtitle format used on BDs/HD-DVDs
Duration                    : 1 h 44 min
Bit rate                    : 23.9 kb/s
Count of elements           : 2250
Stream size                 : 17.9 MiB (0%)
Title                       : Greek
Language                    : Greek
Default                     : No
Forced                      : No

Text #16
ID                          : 18
Format                      : PGS
Codec ID                    : S_HDMV/PGS
Codec ID/Info               : Picture based subtitle format used on BDs/HD-DVDs
Duration                    : 1 h 44 min
Bit rate                    : 23.0 kb/s
Count of elements           : 1866
Stream size                 : 17.2 MiB (0%)
Title                       : Norwegian
Language                    : Norwegian
Default                     : No
Forced                      : No

Text #17
ID                          : 19
Format                      : PGS
Codec ID                    : S_HDMV/PGS
Codec ID/Info               : Picture based subtitle format used on BDs/HD-DVDs
Duration                    : 1 h 44 min
Bit rate                    : 28.6 kb/s
Count of elements           : 2060
Stream size                 : 21.4 MiB (0%)
Title                       : Romanian
Language                    : Romanian
Default                     : No
Forced                      : No

Text #18
ID                          : 20
Format                      : PGS
Codec ID                    : S_HDMV/PGS
Codec ID/Info               : Picture based subtitle format used on BDs/HD-DVDs
Duration                    : 1 h 44 min
Bit rate                    : 27.9 kb/s
Count of elements           : 2532
Stream size                 : 20.9 MiB (0%)
Title                       : Russian
Language                    : Russian
Default                     : No
Forced                      : No

Text #19
ID                          : 21
Format                      : PGS
Codec ID                    : S_HDMV/PGS
Codec ID/Info               : Picture based subtitle format used on BDs/HD-DVDs
Duration                    : 1 h 44 min
Bit rate                    : 23.9 kb/s
Count of elements           : 2544
Stream size                 : 17.9 MiB (0%)
Title                       : Swedish
Language                    : Swedish
Default                     : No
Forced                      : No

Text #20
ID                          : 22
Format                      : PGS
Codec ID                    : S_HDMV/PGS
Codec ID/Info               : Picture based subtitle format used on BDs/HD-DVDs
Duration                    : 1 h 44 min
Bit rate                    : 26.0 kb/s
Count of elements           : 2432
Stream size                 : 19.5 MiB (0%)
Title                       : Thai
Language                    : Thai
Default                     : No
Forced                      : No

Menu
00:00:00.000                : :Credits (Friday Night's A Great Night for Football)
00:03:00.472                : :The Game of Billy Cole's Life
00:07:28.907                : :Rude Awakening
00:10:59.659                : :Delivering a Pass
00:12:24.494                : :The Guy in the Closet
00:16:45.129                : :Kaboom!
00:19:54.777                : :Wasted Youth
00:25:16.432                : :Joking Out of a Jam
00:29:32.479                : :Street Ambush
00:31:48.448                : :The Baynard Incident
00:35:08.982                : :Breaking the Ice
00:39:31.703                : :A Hell of a Factory Recall
00:46:17.650                : :Danger and Cornelius Ride Home
00:48:36.455                : :His Winning Personality
00:51:59.366                : :The Game of Jimmy Dix's Life
00:55:28.075                : :Jimmy's Anguish
00:58:37.931                : :Roughing Up the Million-Dollar Arm
01:00:55.318                : :Schocking Intruders
01:02:39.923                : :Marcone's House
01:06:41.789                : :Police Headquarters
01:08:17.927                : :Marcone's Scheme
01:10:06.035                : :Nancy Drew on the Case
01:17:05.412                : :Going Really Fast
01:20:06.176                : :Jamming in Traffic
01:24:10.337                : :The Coliseum
01:31:38.451                : :Lights Above, Field Below
01:34:27.036                : :Milo Meets His Match
01:36:32.704                : :Terms of Endearment
01:40:09.462                : :Be Prepared; End Credits (Moody River and Friday Night's A Great Night for Football)

Source Information
General
Unique ID                   : 199006878163117756645552766446416366057 (0x95B754A0D8F17E2DA70B61977EDB09E9)
Complete name               : The.Last.Boy.Scout.1991.BluRay.1080p.DTS-HD.MA.5.1.VC-1.REMUX-FraMeSToR.mkv
Format                      : Matroska
Format version              : Version 4
File size                   : 19.6 GiB
Duration                    : 1 h 45 min
Overall bit rate mode       : Variable
Overall bit rate            : 26.6 Mb/s
Encoded date                : UTC 2017-04-21 23:01:32
Writing application         : mkvmerge v10.0.0 ('To Drown In You') 64bit
Writing library             : libebml v1.3.4 + libmatroska v1.4.5

Video
ID                          : 1
Format                      : VC-1
Format profile              : Advanced@L3
Codec ID                    : V_MS/VFW/FOURCC / WVC1
Codec ID/Hint               : Microsoft
Duration                    : 1 h 45 min
Bit rate                    : 22.2 Mb/s
Width                       : 1 920 pixels
Height                      : 1 080 pixels
Display aspect ratio        : 16:9
Frame rate mode             : Constant
Frame rate                  : 23.976 (24000/1001) FPS
Color space                 : YUV
Chroma subsampling          : 4:2:0
Bit depth                   : 8 bits
Scan type                   : Progressive
Compression mode            : Lossy
Bits/(Pixel*Frame)          : 0.447
Stream size                 : 16.4 GiB (84%)
Default                     : Yes
Forced                      : No

Audio
ID                          : 2
Format                      : DTS XLL
Format/Info                 : Digital Theater Systems
Commercial name             : DTS-HD Master Audio
Codec ID                    : A_DTS
Duration                    : 1 h 45 min
Bit rate mode               : Variable
Bit rate                    : 3 811 kb/s
Channel(s)                  : 6 channels
Channel layout              : C L R Ls Rs LFE
Sampling rate               : 48.0 kHz
Frame rate                  : 93.750 FPS (512 SPF)
Bit depth                   : 24 bits
Compression mode            : Lossless
Stream size                 : 2.81 GiB (14%)
Language                    : English
Default                     : Yes
Forced                      : No

Text #1
ID                          : 3
Format                      : PGS
Codec ID                    : S_HDMV/PGS
Codec ID/Info               : Picture based subtitle format used on BDs/HD-DVDs
Duration                    : 1 h 42 min
Bit rate                    : 36.6 kb/s
Count of elements           : 2786
Stream size                 : 26.8 MiB (0%)
Title                       : English (SDH)
Language                    : English
Default                     : Yes
Forced                      : No

Text #2
ID                          : 4
Format                      : PGS
Codec ID                    : S_HDMV/PGS
Codec ID/Info               : Picture based subtitle format used on BDs/HD-DVDs
Duration                    : 1 h 44 min
Bit rate                    : 24.2 kb/s
Count of elements           : 2502
Stream size                 : 18.1 MiB (0%)
Title                       : French
Language                    : French
Default                     : No
Forced                      : No

Text #3
ID                          : 5
Format                      : PGS
Codec ID                    : S_HDMV/PGS
Codec ID/Info               : Picture based subtitle format used on BDs/HD-DVDs
Duration                    : 1 h 44 min
Bit rate                    : 29.2 kb/s
Count of elements           : 2680
Stream size                 : 21.8 MiB (0%)
Title                       : German (SDH)
Language                    : German
Default                     : No
Forced                      : No

Text #4
ID                          : 6
Format                      : PGS
Codec ID                    : S_HDMV/PGS
Codec ID/Info               : Picture based subtitle format used on BDs/HD-DVDs
Duration                    : 1 h 44 min
Bit rate                    : 29.0 kb/s
Count of elements           : 2642
Stream size                 : 21.7 MiB (0%)
Title                       : Italian
Language                    : Italian
Default                     : No
Forced                      : No

Text #5
ID                          : 7
Format                      : PGS
Codec ID                    : S_HDMV/PGS
Codec ID/Info               : Picture based subtitle format used on BDs/HD-DVDs
Duration                    : 1 h 44 min
Bit rate                    : 32.0 kb/s
Count of elements           : 2980
Stream size                 : 23.9 MiB (0%)
Title                       : Italian (SDH)
Language                    : Italian
Default                     : No
Forced                      : No

Text #6
ID                          : 8
Format                      : PGS
Codec ID                    : S_HDMV/PGS
Codec ID/Info               : Picture based subtitle format used on BDs/HD-DVDs
Duration                    : 1 h 42 min
Bit rate                    : 26.6 kb/s
Count of elements           : 2512
Stream size                 : 19.5 MiB (0%)
Title                       : Spanish (Castilian)
Language                    : Spanish
Default                     : No
Forced                      : No

Text #7
ID                          : 9
Format                      : PGS
Codec ID                    : S_HDMV/PGS
Codec ID/Info               : Picture based subtitle format used on BDs/HD-DVDs
Duration                    : 1 h 42 min
Bit rate                    : 22.4 kb/s
Count of elements           : 2460
Stream size                 : 16.4 MiB (0%)
Title                       : Dutch
Language                    : Dutch
Default                     : No
Forced                      : No

Text #8
ID                          : 10
Format                      : PGS
Codec ID                    : S_HDMV/PGS
Codec ID/Info               : Picture based subtitle format used on BDs/HD-DVDs
Duration                    : 1 h 44 min
Bit rate                    : 29.3 kb/s
Count of elements           : 2462
Stream size                 : 22.0 MiB (0%)
Title                       : Chinese (Mandarin Traditional)
Language                    : Chinese
Default                     : No
Forced                      : No

Text #9
ID                          : 11
Format                      : PGS
Codec ID                    : S_HDMV/PGS
Codec ID/Info               : Picture based subtitle format used on BDs/HD-DVDs
Duration                    : 1 h 44 min
Bit rate                    : 27.0 kb/s
Count of elements           : 2566
Stream size                 : 20.2 MiB (0%)
Title                       : Spanish (Latin American)
Language                    : Spanish
Default                     : No
Forced                      : No

Text #10
ID                          : 12
Format                      : PGS
Codec ID                    : S_HDMV/PGS
Codec ID/Info               : Picture based subtitle format used on BDs/HD-DVDs
Duration                    : 1 h 44 min
Bit rate                    : 29.6 kb/s
Count of elements           : 2430
Stream size                 : 22.2 MiB (0%)
Title                       : Portuguese (Brazilian)
Language                    : Portuguese
Default                     : No
Forced                      : No

Text #11
ID                          : 13
Format                      : PGS
Codec ID                    : S_HDMV/PGS
Codec ID/Info               : Picture based subtitle format used on BDs/HD-DVDs
Duration                    : 1 h 44 min
Bit rate                    : 24.9 kb/s
Count of elements           : 1984
Stream size                 : 18.6 MiB (0%)
Title                       : Bulgarian
Language                    : Bulgarian
Default                     : No
Forced                      : No

Text #12
ID                          : 14
Format                      : PGS
Codec ID                    : S_HDMV/PGS
Codec ID/Info               : Picture based subtitle format used on BDs/HD-DVDs
Duration                    : 1 h 44 min
Bit rate                    : 23.3 kb/s
Count of elements           : 2564
Stream size                 : 17.5 MiB (0%)
Title                       : Czech
Language                    : Czech
Default                     : No
Forced                      : No

Text #13
ID                          : 15
Format                      : PGS
Codec ID                    : S_HDMV/PGS
Codec ID/Info               : Picture based subtitle format used on BDs/HD-DVDs
Duration                    : 1 h 42 min
Bit rate                    : 24.4 kb/s
Count of elements           : 1784
Stream size                 : 17.8 MiB (0%)
Title                       : Danish
Language                    : Danish
Default                     : No
Forced                      : No

Text #14
ID                          : 16
Format                      : PGS
Codec ID                    : S_HDMV/PGS
Codec ID/Info               : Picture based subtitle format used on BDs/HD-DVDs
Duration                    : 1 h 42 min
Bit rate                    : 27.6 kb/s
Count of elements           : 1874
Stream size                 : 20.2 MiB (0%)
Title                       : Finnish
Language                    : Finnish
Default                     : No
Forced                      : No

Text #15
ID                          : 17
Format                      : PGS
Codec ID                    : S_HDMV/PGS
Codec ID/Info               : Picture based subtitle format used on BDs/HD-DVDs
Duration                    : 1 h 44 min
Bit rate                    : 23.9 kb/s
Count of elements           : 2250
Stream size                 : 17.9 MiB (0%)
Title                       : Greek
Language                    : Greek
Default                     : No
Forced                      : No

Text #16
ID                          : 18
Format                      : PGS
Codec ID                    : S_HDMV/PGS
Codec ID/Info               : Picture based subtitle format used on BDs/HD-DVDs
Duration                    : 1 h 44 min
Bit rate                    : 23.0 kb/s
Count of elements           : 1866
Stream size                 : 17.2 MiB (0%)
Title                       : Norwegian
Language                    : Norwegian
Default                     : No
Forced                      : No

Text #17
ID                          : 19
Format                      : PGS
Codec ID                    : S_HDMV/PGS
Codec ID/Info               : Picture based subtitle format used on BDs/HD-DVDs
Duration                    : 1 h 44 min
Bit rate                    : 28.6 kb/s
Count of elements           : 2060
Stream size                 : 21.4 MiB (0%)
Title                       : Romanian
Language                    : Romanian
Default                     : No
Forced                      : No

Text #18
ID                          : 20
Format                      : PGS
Codec ID                    : S_HDMV/PGS
Codec ID/Info               : Picture based subtitle format used on BDs/HD-DVDs
Duration                    : 1 h 44 min
Bit rate                    : 27.9 kb/s
Count of elements           : 2532
Stream size                 : 20.9 MiB (0%)
Title                       : Russian
Language                    : Russian
Default                     : No
Forced                      : No

Text #19
ID                          : 21
Format                      : PGS
Codec ID                    : S_HDMV/PGS
Codec ID/Info               : Picture based subtitle format used on BDs/HD-DVDs
Duration                    : 1 h 44 min
Bit rate                    : 23.9 kb/s
Count of elements           : 2544
Stream size                 : 17.9 MiB (0%)
Title                       : Swedish
Language                    : Swedish
Default                     : No
Forced                      : No

Text #20
ID                          : 22
Format                      : PGS
Codec ID                    : S_HDMV/PGS
Codec ID/Info               : Picture based subtitle format used on BDs/HD-DVDs
Duration                    : 1 h 44 min
Bit rate                    : 26.0 kb/s
Count of elements           : 2432
Stream size                 : 19.5 MiB (0%)
Title                       : Thai
Language                    : Thai
Default                     : No
Forced                      : No

Menu
00:00:00.000                : en:Credits (Friday Night's A Great Night for Football)
00:03:00.472                : en:The Game of Billy Cole's Life
00:07:28.907                : en:Rude Awakening
00:10:59.659                : en:Delivering a Pass
00:12:24.494                : en:The Guy in the Closet
00:16:45.129                : en:Kaboom!
00:19:54.777                : en:Wasted Youth
00:25:16.432                : en:Joking Out of a Jam
00:29:32.479                : en:Street Ambush
00:31:48.448                : en:The Baynard Incident
00:35:08.982                : en:Breaking the Ice
00:39:31.703                : en:A Hell of a Factory Recall
00:46:17.650                : en:Danger and Cornelius Ride Home
00:48:36.455                : en:His Winning Personality
00:51:59.366                : en:The Game of Jimmy Dix's Life
00:55:28.075                : en:Jimmy's Anguish
00:58:37.931                : en:Roughing Up the Million-Dollar Arm
01:00:55.318                : en:Schocking Intruders
01:02:39.923                : en:Marcone's House
01:06:41.789                : en:Police Headquarters
01:08:17.927                : en:Marcone's Scheme
01:10:06.035                : en:Nancy Drew on the Case
01:17:05.412                : en:Going Really Fast
01:20:06.176                : en:Jamming in Traffic
01:24:10.337                : en:The Coliseum
01:31:38.451                : en:Lights Above, Field Below
01:34:27.036                : en:Milo Meets His Match
01:36:32.704                : en:Terms of Endearment
01:40:09.462                : en:Be Prepared; End Credits (Moody River and Friday Night's A Great Night for Football)

  User comments

No comments have been posted yet.


Post anonymous comment
:) :( :D :P :-) B) 8o :? 8) ;) :-* :-( :| O:-D :-@ :facepalm :o) brb :warn :help :bad :love :idea :bomb :!


CAPTCHA Image 

  Sitefriends