Torrent details for "Bandits (2001) (1080p BDRip x265 10bit DTS-HD MA 5.1 - r0b0t) [TAoE].mkv"    Log in to bookmark

Loading...
Loading...
Torrent details
Cover
Download
Torrent rating (0 rated)
Controls:
Category:
Language:
English English
Total Size:
8.01 GB
Info Hash:
171786740cdce122e64aac5ba93950dfb37801d3
Added By:
Goki:_trusted_uploader::_junkie:  
Added:  
01-08-2020 15:56
Views:
85
Health:
Seeds:
6
Leechers:
2
Completed:
101

File List (1) : 
Title:
Bandits (2001)
Genre:
Comedy, Crime, Drama, Romance
Runtime:
123 min    -    Rating: 6.5
Plot:
Two convicts, one charismatic (Willis) and the other a hypochondriac (Thornton), break out of prison and immediately start a bank robbing spree, kidnapping bank managers, spending the night with their families, then going with the managers in the morning to rob the banks. Using a dim-witted stunt man as their getaway driver and lookout, the three successfully pull off several jobs (even gaining the attention of a television show about American criminals), and become known as "The Sleepover Bandits." Things are going great until the bank managers begin to realize that the robbers are non-violent and therefore no threat to them or their employees, changing the game for the Bandits. To add to the complications, a bored & unhappy housewife (Blanchett) ends up in the hands of the criminals, and begins to have romantic feelings for both Willis and Thornton, causing a sticky love triangle.

Description


Hello everyone,
We are TAoE, a small team of passionate encoders who love encoding. We try our best to provide you with high quality releases.

Requests for movies and shows are welcome.
We have a form for encode requests which can be found here
Encode requests form
submit your request and it will be added to our encoding request list
You can view our encoding request list here
Encode requests list


When or if we encode it will depend on if we can obtain a good source to encode with and
if one of the TAoE encoders chooses to encode it. Unfortunately we are not able to encode everything,
new members are welcome as that helps us encode more content!

If you would like to join TAoE submit your request here!
TAoE member applications form




Bandits (2001) IMDB










Source
Bandits.2001.1080p.BluRay.REMUX.AVC.DTS-HD.MA.5.1-EPSiLON

Media Information
General
Unique ID                   : 69113398981585221021437003943569545276 (0x33FEC1A7BC79765278AD32A6D23C583C)
Complete name               : Bandits (2001) (1080p BDRip x265 10bit DTS-HD MA 5.1 - r0b0t) [TAoE].mkv
Format                      : Matroska
Format version              : Version 4
File size                   : 8.01 GiB
Duration                    : 2 h 3 min
Overall bit rate mode       : Variable
Overall bit rate            : 9 324 kb/s
Writing application         : Lavf58.29.100
Writing library             : Lavf58.29.100
ErrorDetectionType          : Per level 1

Video
ID                          : 1
Format                      : HEVC
Format/Info                 : High Efficiency Video Coding
Format profile              : Main 10@L4@Main
Codec ID                    : V_MPEGH/ISO/HEVC
Duration                    : 2 h 3 min
Bit rate                    : 5 536 kb/s
Width                       : 1 920 pixels
Height                      : 816 pixels
Display aspect ratio        : 2.35:1
Frame rate mode             : Constant
Frame rate                  : 23.976 (24000/1001) FPS
Color space                 : YUV
Chroma subsampling          : 4:2:0
Bit depth                   : 10 bits
Bits/(Pixel*Frame)          : 0.147
Stream size                 : 4.76 GiB (59%)
Title                       : Encoded by r0b0t for TAoE using Shinguru V1.9
Writing library             : x265 3.2+35-acc5d16999e2:[Windows][GCC 9.2.1][64 bit] 10bit
Encoding settings           : cpuid=1111039 / frame-threads=4 / numa-pools=16 / wpp / no-pmode / no-pme / no-psnr / no-ssim / log-level=2 / input-csp=1 / input-res=1920x816 / interlace=0 / total-frames=0 / level-idc=0 / high-tier=1 / uhd-bd=0 / ref=4 / no-allow-non-conformance / no-repeat-headers / annexb / no-aud / no-hrd / info / hash=0 / no-temporal-layers / open-gop / min-keyint=23 / keyint=250 / gop-lookahead=0 / bframes=8 / b-adapt=2 / b-pyramid / bframe-bias=0 / rc-lookahead=80 / lookahead-slices=4 / scenecut=40 / hist-scenecut=0 / radl=0 / no-splice / no-intra-refresh / ctu=64 / min-cu-size=8 / no-rect / no-amp / max-tu-size=32 / tu-inter-depth=1 / tu-intra-depth=1 / limit-tu=0 / rdoq-level=2 / dynamic-rd=0.00 / no-ssim-rd / signhide / no-tskip / nr-intra=0 / nr-inter=0 / no-constrained-intra / no-strong-intra-smoothing / max-merge=3 / limit-refs=3 / limit-modes / me=3 / subme=5 / merange=57 / temporal-mvp / no-frame-dup / no-hme / weightp / no-weightb / no-analyze-src-pics / deblock=0:0 / sao / no-sao-non-deblock / rd=4 / selective-sao=4 / no-early-skip / rskip / no-fast-intra / no-tskip-fast / no-cu-lossless / no-b-intra / no-splitrd-skip / rdpenalty=0 / psy-rd=1.30 / psy-rdoq=2.00 / no-rd-refine / no-lossless / cbqpoffs=0 / crqpoffs=0 / rc=crf / crf=19.0 / qcomp=0.60 / qpstep=4 / stats-write=0 / stats-read=0 / ipratio=1.40 / pbratio=1.30 / aq-mode=4 / aq-strength=1.10 / cutree / zone-count=0 / no-strict-cbr / qg-size=32 / no-rc-grain / qpmax=69 / qpmin=0 / no-const-vbv / sar=1 / overscan=0 / videoformat=5 / range=0 / colorprim=2 / transfer=2 / colormatrix=2 / chromaloc=0 / display-window=0 / cll=0,0 / min-luma=0 / max-luma=1023 / log2-max-poc-lsb=8 / vui-timing-info / vui-hrd-info / slices=1 / no-opt-qp-pps / no-opt-ref-list-length-pps / no-multi-pass-opt-rps / scenecut-bias=0.05 / hist-threshold=0.01 / no-opt-cu-delta-qp / no-aq-motion / no-hdr10 / no-hdr10-opt / no-dhdr10-opt / no-idr-recovery-sei / analysis-reuse-level=0 / analysis-save-reuse-level=0 / analysis-load-reuse-level=0 / scale-factor=0 / refine-intra=0 / refine-inter=0 / refine-mv=1 / refine-ctu-distortion=0 / no-limit-sao / ctu-info=0 / no-lowpass-dct / refine-analysis-type=0 / copy-pic=1 / max-ausize-factor=1.0 / no-dynamic-refine / no-single-sei / no-hevc-aq / no-svt / no-field / qp-adaptation-range=1.00 / no-scenecut-aware-qpconformance-window-offsets / right=0 / bottom=0
Language                    : English
Default                     : Yes
Forced                      : No
Color range                 : Limited

Audio
ID                          : 2
Format                      : DTS XLL
Format/Info                 : Digital Theater Systems
Commercial name             : DTS-HD Master Audio
Codec ID                    : A_DTS
Duration                    : 2 h 3 min
Bit rate mode               : Variable
Bit rate                    : 3 720 kb/s
Channel(s)                  : 6 channels
Channel layout              : C L R Ls Rs LFE
Sampling rate               : 48.0 kHz
Frame rate                  : 93.750 FPS (512 SPF)
Bit depth                   : 24 bits
Compression mode            : Lossless
Stream size                 : 3.20 GiB (40%)
Language                    : English
Default                     : Yes
Forced                      : No

Text
ID                          : 3
Format                      : PGS
Codec ID                    : S_HDMV/PGS
Codec ID/Info               : Picture based subtitle format used on BDs/HD-DVDs
Duration                    : 2 h 2 min
Bit rate                    : 60.8 kb/s
Count of elements           : 5404
Stream size                 : 53.1 MiB (1%)
Language                    : English
Default                     : No
Forced                      : No

Menu
00:00:00.000                : :Main Title/The Story
00:04:18.859                : :"Anger Management"
00:06:39.801                : :The Grear Escape
00:11:40.468                : :Unplanned Robbery
00:15:52.787                : :Teenage Hosts
00:18:21.770                : :Dreaming of Mexico
00:21:20.383                : :Would-be Hero
00:23:05.688                : :"The Front Man"
00:26:17.246                : :"Sleepover Bandits"
00:30:00.203                : :"Make It Clear"
00:33:34.018                : :Three-way Split
00:35:10.081                : :Mad Housewife
00:38:17.870                : :Hit & Run
00:39:30.710                : :Desperate & Fragile
00:41:31.732                : :Girl Trouble
00:46:43.076                : :"So...You Rob Banks?"
00:50:06.779                : :Poetry in Motion
00:54:40.052                : :"Emotional Stress"
00:59:26.239                : :Victim or Criminal?
01:03:46.900                : :What a Wreck!
01:09:59.139                : :Talking About Love
01:13:26.214                : :Neurotic Bonding
01:17:31.126                : :A Confusing Choice
01:22:25.587                : :Unimpassioned Plea
01:23:46.402                : :Finding a New Home
01:28:00.457                : :A Stupid Stunt
01:36:36.138                : :Three's a Crowd
01:46:15.350                : :"One More Big Score"
01:48:57.847                : :Coming Forth
01:51:23.025                : :Bloody Standoff
01:54:34.249                : :A Fiery Finale
01:57:10.672                : :Ending in Paradise

Source Information
General
Unique ID                   : 316229543766951088674240376594873532409 (0xEDE79842753F138311B926CF91093FF9)
Complete name               : Bandits.2001.1080p.BluRay.REMUX.AVC.DTS-HD.MA.5.1-EPSiLON.mkv
Format                      : Matroska
Format version              : Version 4
File size                   : 21.1 GiB
Duration                    : 2 h 3 min
Overall bit rate mode       : Variable
Overall bit rate            : 24.5 Mb/s
Encoded date                : UTC 2017-08-11 04:20:15
Writing application         : mkvmerge v14.0.0 ('Flow') 64bit
Writing library             : libebml v1.3.4 + libmatroska v1.4.5

Video
ID                          : 1
Format                      : AVC
Format/Info                 : Advanced Video Codec
Format profile              : High@L4.1
Format settings             : CABAC / 4 Ref Frames
Format settings, CABAC      : Yes
Format settings, Reference  : 4 frames
Codec ID                    : V_MPEG4/ISO/AVC
Duration                    : 2 h 3 min
Bit rate mode               : Variable
Bit rate                    : 20.7 Mb/s
Maximum bit rate            : 38.0 Mb/s
Width                       : 1 920 pixels
Height                      : 1 080 pixels
Display aspect ratio        : 16:9
Frame rate mode             : Constant
Frame rate                  : 23.976 (24000/1001) FPS
Color space                 : YUV
Chroma subsampling          : 4:2:0
Bit depth                   : 8 bits
Scan type                   : Progressive
Bits/(Pixel*Frame)          : 0.417
Stream size                 : 17.8 GiB (85%)
Title                       : MPEG-4 AVC Video / 20789 kbps / 1080p / 23.976 fps / 16:9 / High Profile 4.1
Language                    : English
Default                     : Yes
Forced                      : No

Audio
ID                          : 2
Format                      : DTS XLL
Format/Info                 : Digital Theater Systems
Commercial name             : DTS-HD Master Audio
Codec ID                    : A_DTS
Duration                    : 2 h 3 min
Bit rate mode               : Variable
Bit rate                    : 3 720 kb/s
Channel(s)                  : 6 channels
Channel layout              : C L R Ls Rs LFE
Sampling rate               : 48.0 kHz
Frame rate                  : 93.750 FPS (512 SPF)
Bit depth                   : 24 bits
Compression mode            : Lossless
Stream size                 : 3.20 GiB (15%)
Language                    : English
Default                     : Yes
Forced                      : No

Text
ID                          : 3
Format                      : PGS
Codec ID                    : S_HDMV/PGS
Codec ID/Info               : Picture based subtitle format used on BDs/HD-DVDs
Duration                    : 2 h 2 min
Bit rate                    : 60.8 kb/s
Count of elements           : 5404
Stream size                 : 53.1 MiB (0%)
Language                    : English
Default                     : No
Forced                      : No

Menu
00:00:00.000                : en:Main Title/The Story
00:04:18.859                : en:"Anger Management"
00:06:39.801                : en:The Grear Escape
00:11:40.468                : en:Unplanned Robbery
00:15:52.787                : en:Teenage Hosts
00:18:21.770                : en:Dreaming of Mexico
00:21:20.383                : en:Would-be Hero
00:23:05.688                : en:"The Front Man"
00:26:17.246                : en:"Sleepover Bandits"
00:30:00.203                : en:"Make It Clear"
00:33:34.018                : en:Three-way Split
00:35:10.081                : en:Mad Housewife
00:38:17.870                : en:Hit & Run
00:39:30.710                : en:Desperate & Fragile
00:41:31.732                : en:Girl Trouble
00:46:43.076                : en:"So...You Rob Banks?"
00:50:06.779                : en:Poetry in Motion
00:54:40.052                : en:"Emotional Stress"
00:59:26.239                : en:Victim or Criminal?
01:03:46.900                : en:What a Wreck!
01:09:59.139                : en:Talking About Love
01:13:26.214                : en:Neurotic Bonding
01:17:31.126                : en:A Confusing Choice
01:22:25.587                : en:Unimpassioned Plea
01:23:46.402                : en:Finding a New Home
01:28:00.457                : en:A Stupid Stunt
01:36:36.138                : en:Three's a Crowd
01:46:15.350                : en:"One More Big Score"
01:48:57.847                : en:Coming Forth
01:51:23.025                : en:Bloody Standoff
01:54:34.249                : en:A Fiery Finale
01:57:10.672                : en:Ending in Paradise

Similar torrents

Name 
DL
Uploader
Size 
S/L 
Added
-
887.62 MB
221
[1/0]
28/07/19 01:21

  User comments

No comments have been posted yet.


Post anonymous comment
:) :( :D :P :-) B) 8o :? 8) ;) :-* :-( :| O:-D :-@ :facepalm :o) brb :warn :help :bad :love :idea :bomb :!


CAPTCHA Image 

  Sitefriends