Torrent details for "My One and Only (2009) (1080p BDRip x265 10bit DTS-HD MA 5.1 - r0b0t) [TAoE].mkv"    Log in to bookmark

Loading...
Loading...
Torrent details
Cover
Download
Torrent rating (0 rated)
Controls:
Category:
Language:
English English
Total Size:
7.44 GB
Info Hash:
94f687bd79b93e8922358da00f0e0f6da8376862
Added By:
Goki:_trusted_uploader::_junkie:  
Added:  
01-08-2020 15:59
Views:
70
Health:
Seeds:
11
Leechers:
4
Completed:
28

File List (1) : 
Title:
Genre:
Adventure, Biography, Comedy, Drama, Romance
Runtime:
108 min    -    Rating: 6.5
Plot:
After leaving her philandering husband, an elegant socialite takes her two sons on a road trip across America in search of a better life.

Description


Hello everyone,
We are TAoE, a small team of passionate encoders who love encoding. We try our best to provide you with high quality releases.

Requests for movies and shows are welcome.
We have a form for encode requests which can be found here
Encode requests form
submit your request and it will be added to our encoding request list
You can view our encoding request list here
Encode requests list


When or if we encode it will depend on if we can obtain a good source to encode with and
if one of the TAoE encoders chooses to encode it. Unfortunately we are not able to encode everything,
new members are welcome as that helps us encode more content!

If you would like to join TAoE submit your request here!
TAoE member applications form




My One and Only (2009) IMDB










Source
My.One.and.Only.2009.1080p.BluRay.REMUX.AVC.DTS-HD.MA.5.1-EPSiLON

Media Information
General
Unique ID                   : 325237989324836461314507296209964399775 (0xF4AE8EEABCA14CC557CD2B86F19C7C9F)
Complete name               : My One and Only (2009) (1080p BDRip x265 10bit DTS-HD MA 5.1 - r0b0t) [TAoE].mkv
Format                      : Matroska
Format version              : Version 4
File size                   : 7.44 GiB
Duration                    : 1 h 47 min
Overall bit rate mode       : Variable
Overall bit rate            : 9 909 kb/s
Writing application         : Lavf58.29.100
Writing library             : Lavf58.29.100
ErrorDetectionType          : Per level 1
IMDB                        : tt1185431
TMDB                        : movie/26820

Video
ID                          : 1
Format                      : HEVC
Format/Info                 : High Efficiency Video Coding
Format profile              : Main 10@L4@Main
Codec ID                    : V_MPEGH/ISO/HEVC
Duration                    : 1 h 47 min
Bit rate                    : 7 715 kb/s
Width                       : 1 920 pixels
Height                      : 816 pixels
Display aspect ratio        : 2.35:1
Frame rate mode             : Constant
Frame rate                  : 24.000 FPS
Color space                 : YUV
Chroma subsampling          : 4:2:0
Bit depth                   : 10 bits
Bits/(Pixel*Frame)          : 0.205
Stream size                 : 5.80 GiB (78%)
Title                       : Encoded by r0b0t for TAoE using Shinguru V1.9
Writing library             : x265 3.2+35-acc5d16999e2:[Windows][GCC 9.2.1][64 bit] 10bit
Encoding settings           : cpuid=1111039 / frame-threads=4 / numa-pools=16 / wpp / no-pmode / no-pme / no-psnr / no-ssim / log-level=2 / input-csp=1 / input-res=1920x816 / interlace=0 / total-frames=0 / level-idc=0 / high-tier=1 / uhd-bd=0 / ref=4 / no-allow-non-conformance / no-repeat-headers / annexb / no-aud / no-hrd / info / hash=0 / no-temporal-layers / open-gop / min-keyint=24 / keyint=250 / gop-lookahead=0 / bframes=8 / b-adapt=2 / b-pyramid / bframe-bias=0 / rc-lookahead=80 / lookahead-slices=4 / scenecut=40 / hist-scenecut=0 / radl=0 / no-splice / no-intra-refresh / ctu=64 / min-cu-size=8 / no-rect / no-amp / max-tu-size=32 / tu-inter-depth=1 / tu-intra-depth=1 / limit-tu=0 / rdoq-level=2 / dynamic-rd=0.00 / no-ssim-rd / signhide / no-tskip / nr-intra=0 / nr-inter=0 / no-constrained-intra / no-strong-intra-smoothing / max-merge=3 / limit-refs=3 / limit-modes / me=3 / subme=5 / merange=57 / temporal-mvp / no-frame-dup / no-hme / weightp / no-weightb / no-analyze-src-pics / deblock=0:0 / sao / no-sao-non-deblock / rd=4 / selective-sao=4 / no-early-skip / rskip / no-fast-intra / no-tskip-fast / no-cu-lossless / no-b-intra / no-splitrd-skip / rdpenalty=0 / psy-rd=1.30 / psy-rdoq=2.00 / no-rd-refine / no-lossless / cbqpoffs=0 / crqpoffs=0 / rc=crf / crf=19.0 / qcomp=0.60 / qpstep=4 / stats-write=0 / stats-read=0 / ipratio=1.40 / pbratio=1.30 / aq-mode=4 / aq-strength=1.10 / cutree / zone-count=0 / no-strict-cbr / qg-size=32 / no-rc-grain / qpmax=69 / qpmin=0 / no-const-vbv / sar=1 / overscan=0 / videoformat=5 / range=0 / colorprim=2 / transfer=2 / colormatrix=2 / chromaloc=0 / display-window=0 / cll=0,0 / min-luma=0 / max-luma=1023 / log2-max-poc-lsb=8 / vui-timing-info / vui-hrd-info / slices=1 / no-opt-qp-pps / no-opt-ref-list-length-pps / no-multi-pass-opt-rps / scenecut-bias=0.05 / hist-threshold=0.01 / no-opt-cu-delta-qp / no-aq-motion / no-hdr10 / no-hdr10-opt / no-dhdr10-opt / no-idr-recovery-sei / analysis-reuse-level=0 / analysis-save-reuse-level=0 / analysis-load-reuse-level=0 / scale-factor=0 / refine-intra=0 / refine-inter=0 / refine-mv=1 / refine-ctu-distortion=0 / no-limit-sao / ctu-info=0 / no-lowpass-dct / refine-analysis-type=0 / copy-pic=1 / max-ausize-factor=1.0 / no-dynamic-refine / no-single-sei / no-hevc-aq / no-svt / no-field / qp-adaptation-range=1.00 / no-scenecut-aware-qpconformance-window-offsets / right=0 / bottom=0
Language                    : English
Default                     : Yes
Forced                      : No
Color range                 : Limited

Audio
ID                          : 2
Format                      : DTS XLL
Format/Info                 : Digital Theater Systems
Commercial name             : DTS-HD Master Audio
Codec ID                    : A_DTS
Duration                    : 1 h 47 min
Bit rate mode               : Variable
Bit rate                    : 2 126 kb/s
Channel(s)                  : 6 channels
Channel layout              : C L R Ls Rs LFE
Sampling rate               : 48.0 kHz
Frame rate                  : 93.750 FPS (512 SPF)
Bit depth                   : 16 bits
Compression mode            : Lossless
Stream size                 : 1.60 GiB (21%)
Language                    : English
Default                     : Yes
Forced                      : No

Text
ID                          : 3
Format                      : PGS
Codec ID                    : S_HDMV/PGS
Codec ID/Info               : Picture based subtitle format used on BDs/HD-DVDs
Duration                    : 1 h 47 min
Bit rate                    : 61.5 kb/s
Count of elements           : 4020
Stream size                 : 47.1 MiB (1%)
Title                       : SDH
Language                    : English
Default                     : No
Forced                      : No

Menu
00:00:00.000                : :Chapter 1
00:12:10.083                : :Chapter 2
00:23:47.958                : :Chapter 3
00:32:05.542                : :Chapter 4
00:41:03.375                : :Chapter 5
00:49:04.417                : :Chapter 6
00:56:19.750                : :Chapter 7
01:05:13.500                : :Chapter 8
01:15:56.500                : :Chapter 9
01:23:44.542                : :Chapter 10
01:33:07.208                : :Chapter 11
01:42:25.208                : :Chapter 12

Source Information
General
Unique ID                   : 200138513668855514982241459085812943288 (0x96914690FF986836FDA2B90FCB83C9B8)
Complete name               : My.One.and.Only.2009.1080p.BluRay.REMUX.AVC.DTS-HD.MA.5.1-EPSiLON.mkv
Format                      : Matroska
Format version              : Version 4
File size                   : 24.9 GiB
Duration                    : 1 h 47 min
Overall bit rate mode       : Variable
Overall bit rate            : 33.2 Mb/s
Encoded date                : UTC 2020-07-27 02:07:46
Writing application         : mkvmerge v48.0.0 ('Fortress Around Your Heart') 64-bit
Writing library             : libebml v1.4.0 + libmatroska v1.6.0
IMDB                        : tt1185431
TMDB                        : movie/26820

Video
ID                          : 1
Format                      : AVC
Format/Info                 : Advanced Video Codec
Format profile              : High@L4.1
Format settings             : CABAC / 4 Ref Frames
Format settings, CABAC      : Yes
Format settings, Reference  : 4 frames
Codec ID                    : V_MPEG4/ISO/AVC
Duration                    : 1 h 47 min
Bit rate mode               : Variable
Bit rate                    : 31.0 Mb/s
Maximum bit rate            : 33.0 Mb/s
Width                       : 1 920 pixels
Height                      : 1 080 pixels
Display aspect ratio        : 16:9
Frame rate mode             : Constant
Frame rate                  : 24.000 FPS
Color space                 : YUV
Chroma subsampling          : 4:2:0
Bit depth                   : 8 bits
Scan type                   : Progressive
Bits/(Pixel*Frame)          : 0.622
Stream size                 : 23.3 GiB (93%)
Title                       : MPEG-4 AVC Video / 30996 kbps / 1080p / 24 fps / 16:9 / High Profile 4.1
Language                    : English
Default                     : Yes
Forced                      : No
Color range                 : Limited
Color primaries             : BT.709
Transfer characteristics    : BT.709
Matrix coefficients         : BT.709

Audio
ID                          : 2
Format                      : DTS XLL
Format/Info                 : Digital Theater Systems
Commercial name             : DTS-HD Master Audio
Codec ID                    : A_DTS
Duration                    : 1 h 47 min
Bit rate mode               : Variable
Bit rate                    : 2 126 kb/s
Channel(s)                  : 6 channels
Channel layout              : C L R Ls Rs LFE
Sampling rate               : 48.0 kHz
Frame rate                  : 93.750 FPS (512 SPF)
Bit depth                   : 16 bits
Compression mode            : Lossless
Stream size                 : 1.60 GiB (6%)
Language                    : English
Default                     : Yes
Forced                      : No

Text
ID                          : 3
Format                      : PGS
Codec ID                    : S_HDMV/PGS
Codec ID/Info               : Picture based subtitle format used on BDs/HD-DVDs
Duration                    : 1 h 47 min
Bit rate                    : 61.5 kb/s
Count of elements           : 4020
Stream size                 : 47.1 MiB (0%)
Title                       : SDH
Language                    : English
Default                     : No
Forced                      : No

Menu
00:00:00.000                : en:Chapter 1
00:12:10.083                : en:Chapter 2
00:23:47.958                : en:Chapter 3
00:32:05.542                : en:Chapter 4
00:41:03.375                : en:Chapter 5
00:49:04.417                : en:Chapter 6
00:56:19.750                : en:Chapter 7
01:05:13.500                : en:Chapter 8
01:15:56.500                : en:Chapter 9
01:23:44.542                : en:Chapter 10
01:33:07.208                : en:Chapter 11
01:42:25.208                : en:Chapter 12

Similar torrents

Name 
DL
Uploader
Size 
S/L 
Added
-
831.54 MB
424
[19/10]
24/09/19 19:29
-
701.70 MB
409
[1/0]
01/09/19 19:15

  User comments

No comments have been posted yet.


Post anonymous comment
:) :( :D :P :-) B) 8o :? 8) ;) :-* :-( :| O:-D :-@ :facepalm :o) brb :warn :help :bad :love :idea :bomb :!


CAPTCHA Image 

  Sitefriends