Torrent details for "The Founder (2016) (1080p BDRip x265 10bit EAC3 5.1 - WEM)[TAoE].mkv.mkv"    Log in to bookmark

Loading...
Loading...
Torrent details
Cover
Download
Torrent rating (0 rated)
Controls:
Category:
Language:
English English
Total Size:
3.88 GB
Info Hash:
227d4d999faaf77ac6452c3637475dfb873d0f22
Added By:
Goki:_trusted_uploader::_junkie:  
Added:  
01-08-2020 16:20 (edited 01-08-2020 16:23) by Goki:_trusted_uploader::_junkie:
Views:
77
Health:
Seeds:
20
Leechers:
2
Completed:
327

File List (1) : 
Title:
Genre:
Biography, Drama
Runtime:
115 min    -    Rating: 7.2
Plot:
1954. Having worked as a salesman most of his adult life, Ray Kroc has been a hustler in most senses of the word. That hustling has made him the target of derision among certain circles for peddling what have ended up being more novelty or faddish than useful products, but it has also placed more than a comfortable roof in Arlington Heights, Illinois over his and his wife Ethel's heads. Ethel, however, wishes that he placed as much effort into being at home with her than he is in selling, his current job of peddling five-spindle milkshake makers for Prince Castle which has him constantly on the road going from one drive-in restaurant to another. It is because of the beefs he has with the whole drive-in experience (bad food, bad service) in constantly eating at such establishments while on the road that he becomes enthralled with the concept of McDonald's Restaurant in San Bernardino, California, it owned and operated by brothers Richard McDonald and Maurice McDonald - Dick and Mac. Unlike most of Ray's customers who will only require one five-spindle milkshake maker at any given time, the McDonald brothers end up purchasing eight machines for their single restaurant. Primarily on D

Description


Hello everyone,
We are TAoE, a small team of passionate encoders who love encoding. We try our best to provide you with high quality releases.

Requests for movies and shows are welcome.
We have a form for encode requests which can be found here
Encode requests form
submit your request and it will be added to our encoding request list
You can view our encoding request list here
Encode requests list


When or if we encode it will depend on if we can obtain a good source to encode with and
if one of the TAoE encoders chooses to encode it. Unfortunately we are not able to encode everything,
new members are welcome as that helps us encode more content!

If you would like to join TAoE submit your request here!
TAoE member applications form




The Founder (2016) IMDB














Encode Media Information
General
Unique ID                                : 80169699897007680700352075644982157212 (0x3C501F608347368873D158E326AA5F9C)
Complete name                            : The Founder (2016) (1080p BDRip x265 10bit EAC3 5.1 - WEM)[TAoE].mkv.mkv
Format                                   : Matroska
Format version                           : Version 4
File size                                : 3.88 GiB
Duration                                 : 1 h 55 min
Overall bit rate                         : 4 811 kb/s
Writing application                      : Lavf58.29.100
Writing library                          : Lavf58.29.100
ErrorDetectionType                       : Per level 1

Video
ID                                       : 1
Format                                   : HEVC
Format/Info                              : High Efficiency Video Coding
Format profile                           : Main 10@L4@Main
Codec ID                                 : V_MPEGH/ISO/HEVC
Duration                                 : 1 h 55 min
Bit rate                                 : 4 265 kb/s
Width                                    : 1 920 pixels
Height                                   : 800 pixels
Display aspect ratio                     : 2.40:1
Frame rate mode                          : Variable
Frame rate                               : 23.976 FPS
Color space                              : YUV
Chroma subsampling                       : 4:2:0
Bit depth                                : 10 bits
Bits/(Pixel*Frame)                       : 0.116
Stream size                              : 3.44 GiB (89%)
Title                                    : Encoded by WEM for TAoE using Shinguru V1.9
Writing library                          : x265 3.2+35-acc5d16999e2:[Windows][GCC 9.2.1][64 bit] 10bit
Encoding settings                        : cpuid=1111039 / frame-threads=4 / numa-pools=24 / wpp / no-pmode / no-pme / no-psnr / no-ssim / log-level=2 / input-csp=1 / input-res=1920x800 / interlace=0 / total-frames=0 / level-idc=0 / high-tier=1 / uhd-bd=0 / ref=4 / no-allow-non-conformance / no-repeat-headers / annexb / no-aud / no-hrd / info / hash=0 / no-temporal-layers / open-gop / min-keyint=23 / keyint=250 / gop-lookahead=0 / bframes=8 / b-adapt=2 / b-pyramid / bframe-bias=0 / rc-lookahead=80 / lookahead-slices=4 / scenecut=40 / hist-scenecut=0 / radl=0 / no-splice / no-intra-refresh / ctu=64 / min-cu-size=8 / no-rect / no-amp / max-tu-size=32 / tu-inter-depth=1 / tu-intra-depth=1 / limit-tu=0 / rdoq-level=2 / dynamic-rd=0.00 / no-ssim-rd / signhide / no-tskip / nr-intra=0 / nr-inter=0 / no-constrained-intra / no-strong-intra-smoothing / max-merge=3 / limit-refs=3 / limit-modes / me=3 / subme=5 / merange=57 / temporal-mvp / no-frame-dup / no-hme / weightp / no-weightb / no-analyze-src-pics / deblock=0:0 / sao / no-sao-non-deblock / rd=4 / selective-sao=4 / no-early-skip / rskip / no-fast-intra / no-tskip-fast / no-cu-lossless / no-b-intra / no-splitrd-skip / rdpenalty=0 / psy-rd=1.30 / psy-rdoq=2.00 / no-rd-refine / no-lossless / cbqpoffs=0 / crqpoffs=0 / rc=crf / crf=18.0 / qcomp=0.60 / qpstep=4 / stats-write=0 / stats-read=0 / ipratio=1.40 / pbratio=1.30 / aq-mode=4 / aq-strength=1.10 / cutree / zone-count=0 / no-strict-cbr / qg-size=32 / no-rc-grain / qpmax=69 / qpmin=0 / no-const-vbv / sar=1 / overscan=0 / videoformat=5 / range=0 / colorprim=2 / transfer=2 / colormatrix=2 / chromaloc=0 / display-window=0 / cll=0,0 / min-luma=0 / max-luma=1023 / log2-max-poc-lsb=8 / vui-timing-info / vui-hrd-info / slices=1 / no-opt-qp-pps / no-opt-ref-list-length-pps / no-multi-pass-opt-rps / scenecut-bias=0.05 / hist-threshold=0.01 / no-opt-cu-delta-qp / no-aq-motion / no-hdr10 / no-hdr10-opt / no-dhdr10-opt / no-idr-recovery-sei / analysis-reuse-level=0 / analysis-save-reuse-level=0 / analysis-load-reuse-level=0 / scale-factor=0 / refine-intra=0 / refine-inter=0 / refine-mv=1 / refine-ctu-distortion=0 / no-limit-sao / ctu-info=0 / no-lowpass-dct / refine-analysis-type=0 / copy-pic=1 / max-ausize-factor=1.0 / no-dynamic-refine / no-single-sei / no-hevc-aq / no-svt / no-field / qp-adaptation-range=1.00 / no-scenecut-aware-qpconformance-window-offsets / right=0 / bottom=0
Default                                  : Yes
Forced                                   : No
Color range                              : Limited

Audio
ID                                       : 2
Format                                   : E-AC-3
Format/Info                              : Enhanced AC-3
Commercial name                          : Dolby Digital Plus
Codec ID                                 : A_EAC3
Duration                                 : 1 h 55 min
Bit rate mode                            : Constant
Bit rate                                 : 448 kb/s
Channel(s)                               : 6 channels
Channel layout                           : L R C LFE Ls Rs
Sampling rate                            : 48.0 kHz
Frame rate                               : 31.250 FPS (1536 SPF)
Bit depth                                : 24 bits
Compression mode                         : Lossy
Stream size                              : 370 MiB (9%)
Writing library                          : Lavc58.54.100 eac3
Language                                 : English
Service kind                             : Complete Main
Default                                  : Yes
Forced                                   : No

Text #1
ID                                       : 3
Format                                   : PGS
Codec ID                                 : S_HDMV/PGS
Codec ID/Info                            : Picture based subtitle format used on BDs/HD-DVDs
Duration                                 : 1 h 50 min
Bit rate                                 : 48.6 kb/s
Count of elements                        : 3810
Stream size                              : 38.4 MiB (1%)
Title                                    : English (SDH)
Language                                 : English
Default                                  : Yes
Forced                                   : No

Text #2
ID                                       : 4
Format                                   : PGS
Codec ID                                 : S_HDMV/PGS
Codec ID/Info                            : Picture based subtitle format used on BDs/HD-DVDs
Duration                                 : 1 h 49 min
Bit rate                                 : 50.6 kb/s
Count of elements                        : 3756
Stream size                              : 39.8 MiB (1%)
Title                                    : Spanish (Latin American)
Language                                 : Spanish
Default                                  : No
Forced                                   : No

Menu
00:00:00.000                             : :00:00:00.000
00:04:21.094                             : :00:04:21.094
00:10:09.984                             : :00:10:09.984
00:16:15.391                             : :00:16:15.391
00:25:07.172                             : :00:25:07.172
00:31:55.247                             : :00:31:55.247
00:38:49.661                             : :00:38:49.661
00:45:43.491                             : :00:45:43.491
00:52:27.394                             : :00:52:27.394
01:00:31.670                             : :01:00:31.670
01:07:38.263                             : :01:07:38.263
01:12:04.904                             : :01:12:04.904
01:18:36.045                             : :01:18:36.045
01:24:36.947                             : :01:24:36.947
01:31:41.121                             : :01:31:41.121
01:37:26.674                             : :01:37:26.674
01:43:35.167                             : :01:43:35.167
01:47:11.675                             : :01:47:11.675

Source Media Information
General
Unique ID                                : 320337853541819266311961747781007642410 (0xF0FED391F1E4206A17CA5AFE2A370F2A)
Complete name                            : The.Founder.2016.BluRay.1080p.DTS-HD.MA.5.1.AVC.REMUX-FraMeSToR.mkv
Format                                   : Matroska
Format version                           : Version 4
File size                                : 23.6 GiB
Duration                                 : 1 h 55 min
Overall bit rate mode                    : Variable
Overall bit rate                         : 29.3 Mb/s
Encoded date                             : UTC 2017-04-12 23:03:32
Writing application                      : mkvmerge v10.0.0 ('To Drown In You') 64bit
Writing library                          : libebml v1.3.4 + libmatroska v1.4.5

Video
ID                                       : 1
Format                                   : AVC
Format/Info                              : Advanced Video Codec
Format profile                           : High@L4.1
Format settings                          : CABAC / 4 Ref Frames
Format settings, CABAC                   : Yes
Format settings, Reference frames        : 4 frames
Format settings, GOP                     : M=3, N=24
Codec ID                                 : V_MPEG4/ISO/AVC
Duration                                 : 1 h 55 min
Bit rate mode                            : Variable
Bit rate                                 : 25.9 Mb/s
Maximum bit rate                         : 35.0 Mb/s
Width                                    : 1 920 pixels
Height                                   : 1 080 pixels
Display aspect ratio                     : 16:9
Frame rate mode                          : Constant
Frame rate                               : 23.976 (24000/1001) FPS
Standard                                 : NTSC
Color space                              : YUV
Chroma subsampling                       : 4:2:0
Bit depth                                : 8 bits
Scan type                                : Progressive
Bits/(Pixel*Frame)                       : 0.521
Stream size                              : 20.9 GiB (88%)
Default                                  : Yes
Forced                                   : No
Color range                              : Limited
Color primaries                          : BT.709
Transfer characteristics                 : BT.709
Matrix coefficients                      : BT.709

Audio
ID                                       : 2
Format                                   : DTS XLL
Format/Info                              : Digital Theater Systems
Commercial name                          : DTS-HD Master Audio
Codec ID                                 : A_DTS
Duration                                 : 1 h 55 min
Bit rate mode                            : Variable
Bit rate                                 : 3 290 kb/s
Channel(s)                               : 6 channels
Channel layout                           : C L R Ls Rs LFE
Sampling rate                            : 48.0 kHz
Frame rate                               : 93.750 FPS (512 SPF)
Bit depth                                : 24 bits
Compression mode                         : Lossless
Stream size                              : 2.65 GiB (11%)
Language                                 : English
Default                                  : Yes
Forced                                   : No

Text #1
ID                                       : 3
Format                                   : PGS
Codec ID                                 : S_HDMV/PGS
Codec ID/Info                            : Picture based subtitle format used on BDs/HD-DVDs
Duration                                 : 1 h 50 min
Bit rate                                 : 48.6 kb/s
Count of elements                        : 3810
Stream size                              : 38.4 MiB (0%)
Title                                    : English (SDH)
Language                                 : English
Default                                  : Yes
Forced                                   : No

Text #2
ID                                       : 4
Format                                   : PGS
Codec ID                                 : S_HDMV/PGS
Codec ID/Info                            : Picture based subtitle format used on BDs/HD-DVDs
Duration                                 : 1 h 49 min
Bit rate                                 : 50.6 kb/s
Count of elements                        : 3756
Stream size                              : 39.8 MiB (0%)
Title                                    : Spanish (Latin American)
Language                                 : Spanish
Default                                  : No
Forced                                   : No

Menu
00:00:00.000                             : en:00:00:00.000
00:04:21.094                             : en:00:04:21.094
00:10:09.984                             : en:00:10:09.984
00:16:15.391                             : en:00:16:15.391
00:25:07.172                             : en:00:25:07.172
00:31:55.247                             : en:00:31:55.247
00:38:49.661                             : en:00:38:49.661
00:45:43.491                             : en:00:45:43.491
00:52:27.394                             : en:00:52:27.394
01:00:31.670                             : en:01:00:31.670
01:07:38.263                             : en:01:07:38.263
01:12:04.904                             : en:01:12:04.904
01:18:36.045                             : en:01:18:36.045
01:24:36.947                             : en:01:24:36.947
01:31:41.121                             : en:01:31:41.121
01:37:26.674                             : en:01:37:26.674
01:43:35.167                             : en:01:43:35.167
01:47:11.675                             : en:01:47:11.675

Similar torrents

Name 
DL
Uploader
Size 
S/L 
Added

  User comments

No comments have been posted yet.


Post anonymous comment
:) :( :D :P :-) B) 8o :? 8) ;) :-* :-( :| O:-D :-@ :facepalm :o) brb :warn :help :bad :love :idea :bomb :!


CAPTCHA Image 

  Sitefriends