Torrent details for "Seriously.Single.2020.HDRip.XviD.AC3.LLG"    Log in to bookmark

Loading...
Loading...
Torrent details
Cover
Download
Torrent rating (0 rated)
Controls:
Category:
Language:
English English
Total Size:
1.21 GB
Info Hash:
8cbfb6e5635401bb20f7fd5c1399350cb6e1caa6
Added By:
Added:  
01-08-2020 16:27
Views:
89
Health:
Seeds:
13
Leechers:
29
Completed:
70

File List (2) : 
Title:
Genre:
Comedy, Romance
Runtime:
107 min    -    Rating: n/A
Plot:
Dineo is the definition of serial monogamist. She dates to fall in love; she falls in love to get married. But she never gets married. She always ends up being dumped. When she meets Lunga Sibiya, he seems to be the man she's waited her whole life for, a man who shares her values when it comes to love and relationships. Or so she thinks - Until she accidentally finds out that the man she was busy planning her forever with, had been planning his forever with someone else. After a messy breakup with Lunga, her commitment-phobic bestie, Noni, helps Dineo face what she dreads most: life as a single woman. Forced to move out of Lunga's apartment, Dineo seeks refuge with Noni. But letting go of another failed relationship is hard for Dineo. Now at her lowest point, Noni encourages Dineo to enjoy the spoils of singledom. Have fun. Meet new people. Become her own person. It's an intimidating notion for Dineo. She hasn't been single in years. But Noni is happy to be her guide. Together, they take the city night life by storm. But love is a difficult thing to avoid: Noni unexpectedly finds herself falling for an unlikely man and Dineo struggles to sidestep the traps of her romantic flaws. Th

Description

Quote:



******************************Thumbnail:**********************



******************************Screenshots:********************

screenshot 1

screenshot 2

screenshot 3

screenshot 4

screenshot 5

screenshot 6

screenshot 7

screenshot 8

screenshot 9

screenshot 0


******************************************************

Seriously.Single.2020.HDRip.XviD.AC3.LLG.mp4
Format                                   : MPEG-4
Format profile                           : Base Media
Codec ID                                 : isom (isom/iso2/avc1/mp41)
File size                                : 1.20 GiB
Duration                                 : 1 h 47 min
Overall bit rate mode                    : Variable
Overall bit rate                         : 1 590 kb/s
Writing application                      : Lavf57.83.100

Video
ID                                       : 1
Format                                   : AVC
Format/Info                              : Advanced Video Codec
Format profile                           : Main@L3
Format settings                          : CABAC / 1 Ref Frames
Format settings, CABAC                   : Yes
Format settings, Reference frames        : 1 frame
Codec ID                                 : avc1
Codec ID/Info                            : Advanced Video Coding
Duration                                 : 1 h 47 min
Bit rate mode                            : Variable
Bit rate                                 : 1 202 kb/s
Maximum bit rate                         : 3 600 kb/s
Width                                    : 720 pixels
Height                                   : 390 pixels
Display aspect ratio                     : 1.85:1
Frame rate mode                          : Constant
Frame rate                               : 24.000 FPS
Color space                              : YUV
Chroma subsampling                       : 4:2:0
Bit depth                                : 8 bits
Scan type                                : Progressive
Bits/(Pixel*Frame)                       : 0.178
Stream size                              : 927 MiB (76%)
Codec configuration box                  : avcC

Audio
ID                                       : 2
Format                                   : AC-3
Format/Info                              : Audio Coding 3
Commercial name                          : Dolby Digital
Codec ID                                 : ac-3
Duration                                 : 1 h 47 min
Bit rate mode                            : Constant
Bit rate                                 : 384 kb/s
Channel(s)                               : 6 channels
Channel layout                           : L R C LFE Ls Rs
Sampling rate                            : 48.0 kHz
Frame rate                               : 31.250 FPS (1536 SPF)
Compression mode                         : Lossy
Stream size                              : 296 MiB (24%)
Title                                    : Surround
Language                                 : English
Service kind                             : Complete Main
Default                                  : Yes
Alternate group                          : 1




********************************************************

[quote]

Similar torrents

Name 
DL
Uploader
Size 
S/L 
Added

  User comments

No comments have been posted yet.


Post anonymous comment
:) :( :D :P :-) B) 8o :? 8) ;) :-* :-( :| O:-D :-@ :facepalm :o) brb :warn :help :bad :love :idea :bomb :!


CAPTCHA Image 

  Sitefriends