Torrent details for "Fatal Attraction (1987) Paramount Presents (1080p BDRip x265 10bit TrueHD 5.1 - TheSickle) [TAoE].mk..."    Log in to bookmark

Loading...
Loading...
Torrent details
Cover
Download
Torrent rating (0 rated)
Controls:
Category:
Language:
English English
Total Size:
15.57 GB
Info Hash:
967a08190bb7d2ce9d640fa577fdb3c3c5616d58
Added By:
Goki:_trusted_uploader::_junkie:  
Added:  
02-08-2020 07:22
Views:
93
Health:
Seeds:
1
Leechers:
5
Completed:
57

File List (1) : 
Title:
Genre:
Drama, Thriller
Runtime:
119 min    -    Rating: 6.9
Director:
Plot:
Happily married New York lawyer Dan Gallagher has an affair with his colleague Alex, and the two enjoy a love weekend while Dan's wife and kid are away. But Alex will not let go of him, and she will stop at nothing to have him for herself. Just how far will she go to get what she wants?

Description


Hello everyone,
We are TAoE, a small team of passionate encoders who love encoding. We try our best to provide you with high quality releases.

Requests for movies and shows are welcome.
We have a form for encode requests which can be found here
Encode requests form
submit your request and it will be added to our encoding request list
You can view our encoding request list here
Encode requests list


When or if we encode it will depend on if we can obtain a good source to encode with and
if one of the TAoE encoders chooses to encode it. Unfortunately we are not able to encode everything,
new members are welcome as that helps us encode more content!

If you would like to join TAoE submit your request here!
TAoE member applications form




Fatal Attraction (1987) IMDb












Encoder's Note: In case you want a comparison between the two versions you can head to this site. Version comparison.



Media Information

General
Unique ID                                : 178681221916828060753203481353104117741 (0x866CC0677A154F20AEDBDE7C10D3CFED)
Complete name                            : Fatal Attraction (1987) Paramount Presents (1080p BDRip x265 10bit TrueHD 5.1 - TheSickle) [TAoE].mkv
Format                                   : Matroska
Format version                           : Version 4
File size                                : 15.6 GiB
Duration                                 : 1 h 59 min
Overall bit rate mode                    : Variable
Overall bit rate                         : 18.7 Mb/s
Movie name                               : Fatal Attraction (1987) Paramount Presents (1080p BDRip x265 10bit TrueHD 5.1 - TheSickle) [TAoE].mkv
Writing application                      : Lavf58.29.100
Writing library                          : Lavf58.29.100
ErrorDetectionType                       : Per level 1

Video
ID                                       : 1
Format                                   : HEVC
Format/Info                              : High Efficiency Video Coding
Format profile                           : Main 10@L4@Main
Codec ID                                 : V_MPEGH/ISO/HEVC
Duration                                 : 1 h 59 min
Bit rate                                 : 15.1 Mb/s
Width                                    : 1 920 pixels
Height                                   : 1 080 pixels
Display aspect ratio                     : 16:9
Frame rate mode                          : Constant
Frame rate                               : 23.976 (24000/1001) FPS
Color space                              : YUV
Chroma subsampling                       : 4:2:0
Bit depth                                : 10 bits
Bits/(Pixel*Frame)                       : 0.304
Stream size                              : 12.6 GiB (81%)
Title                                    : Encoded by TheSickle for TAoE using Shinguru V1.9
Writing library                          : x265 3.2+35-acc5d16999e2:[Windows][GCC 9.2.1][64 bit] 10bit
Encoding settings                        : cpuid=1111039 / frame-threads=4 / numa-pools=24 / wpp / no-pmode / no-pme / no-psnr / no-ssim / log-level=2 / input-csp=1 / input-res=1920x1080 / interlace=0 / total-frames=0 / level-idc=0 / high-tier=1 / uhd-bd=0 / ref=4 / no-allow-non-conformance / no-repeat-headers / annexb / no-aud / no-hrd / info / hash=0 / no-temporal-layers / open-gop / min-keyint=23 / keyint=250 / gop-lookahead=0 / bframes=8 / b-adapt=2 / b-pyramid / bframe-bias=0 / rc-lookahead=80 / lookahead-slices=4 / scenecut=40 / hist-scenecut=0 / radl=0 / no-splice / no-intra-refresh / ctu=64 / min-cu-size=8 / no-rect / no-amp / max-tu-size=32 / tu-inter-depth=1 / tu-intra-depth=1 / limit-tu=0 / rdoq-level=2 / dynamic-rd=0.00 / no-ssim-rd / signhide / no-tskip / nr-intra=0 / nr-inter=0 / no-constrained-intra / no-strong-intra-smoothing / max-merge=3 / limit-refs=3 / limit-modes / me=3 / subme=5 / merange=57 / temporal-mvp / no-frame-dup / no-hme / weightp / no-weightb / no-analyze-src-pics / deblock=0:0 / sao / no-sao-non-deblock / rd=4 / selective-sao=4 / no-early-skip / rskip / no-fast-intra / no-tskip-fast / no-cu-lossless / no-b-intra / no-splitrd-skip / rdpenalty=0 / psy-rd=1.30 / psy-rdoq=2.00 / no-rd-refine / no-lossless / cbqpoffs=0 / crqpoffs=0 / rc=crf / crf=19.0 / qcomp=0.60 / qpstep=4 / stats-write=0 / stats-read=0 / ipratio=1.40 / pbratio=1.30 / aq-mode=4 / aq-strength=1.10 / cutree / zone-count=0 / no-strict-cbr / qg-size=32 / no-rc-grain / qpmax=69 / qpmin=0 / no-const-vbv / sar=1 / overscan=0 / videoformat=5 / range=0 / colorprim=2 / transfer=2 / colormatrix=2 / chromaloc=0 / display-window=0 / cll=0,0 / min-luma=0 / max-luma=1023 / log2-max-poc-lsb=8 / vui-timing-info / vui-hrd-info / slices=1 / no-opt-qp-pps / no-opt-ref-list-length-pps / no-multi-pass-opt-rps / scenecut-bias=0.05 / hist-threshold=0.01 / no-opt-cu-delta-qp / no-aq-motion / no-hdr10 / no-hdr10-opt / no-dhdr10-opt / no-idr-recovery-sei / analysis-reuse-level=0 / analysis-save-reuse-level=0 / analysis-load-reuse-level=0 / scale-factor=0 / refine-intra=0 / refine-inter=0 / refine-mv=1 / refine-ctu-distortion=0 / no-limit-sao / ctu-info=0 / no-lowpass-dct / refine-analysis-type=0 / copy-pic=1 / max-ausize-factor=1.0 / no-dynamic-refine / no-single-sei / no-hevc-aq / no-svt / no-field / qp-adaptation-range=1.00 / no-scenecut-aware-qpconformance-window-offsets / right=0 / bottom=0
Language                                 : English
Default                                  : No
Forced                                   : No
Color range                              : Limited

Audio #1
ID                                       : 2
Format                                   : MLP FBA
Format/Info                              : Meridian Lossless Packing FBA
Commercial name                          : Dolby TrueHD
Codec ID                                 : A_TRUEHD
Duration                                 : 1 h 59 min
Bit rate mode                            : Variable
Bit rate                                 : 3 127 kb/s
Maximum bit rate                         : 4 437 kb/s
Channel(s)                               : 6 channels
Channel layout                           : L R C LFE Ls Rs
Sampling rate                            : 48.0 kHz
Frame rate                               : 1 200.000 FPS (40 SPF)
Bit depth                                : 24 bits
Compression mode                         : Lossless
Stream size                              : 2.61 GiB (17%)
Language                                 : English
Default                                  : Yes
Forced                                   : No

Audio #2
ID                                       : 3
Format                                   : AC-3
Format/Info                              : Audio Coding 3
Commercial name                          : Dolby Digital
Codec ID                                 : A_AC3
Duration                                 : 1 h 59 min
Bit rate mode                            : Constant
Bit rate                                 : 224 kb/s
Channel(s)                               : 2 channels
Channel layout                           : L R
Sampling rate                            : 48.0 kHz
Frame rate                               : 31.250 FPS (1536 SPF)
Bit depth                                : 32 bits
Compression mode                         : Lossy
Stream size                              : 191 MiB (1%)
Title                                    : Commentary by Director Adrian Lyne
Language                                 : English
Service kind                             : Complete Main
Default                                  : No
Forced                                   : No

Text #1
ID                                       : 4
Format                                   : PGS
Codec ID                                 : S_HDMV/PGS
Codec ID/Info                            : Picture based subtitle format used on BDs/HD-DVDs
Duration                                 : 1 h 50 min
Bit rate                                 : 26.0 kb/s
Count of elements                        : 2048
Stream size                              : 20.6 MiB (0%)
Title                                    : English
Language                                 : English
Default                                  : No
Forced                                   : No

Text #2
ID                                       : 5
Format                                   : PGS
Codec ID                                 : S_HDMV/PGS
Codec ID/Info                            : Picture based subtitle format used on BDs/HD-DVDs
Duration                                 : 1 h 52 min
Bit rate                                 : 33.7 kb/s
Count of elements                        : 2022
Stream size                              : 27.2 MiB (0%)
Title                                    : English SDH
Language                                 : English
Default                                  : No
Forced                                   : No

Text #3
ID                                       : 6
Format                                   : PGS
Codec ID                                 : S_HDMV/PGS
Codec ID/Info                            : Picture based subtitle format used on BDs/HD-DVDs
Duration                                 : 1 h 51 min
Bit rate                                 : 22.0 kb/s
Count of elements                        : 1898
Stream size                              : 17.6 MiB (0%)
Title                                    : Français
Language                                 : French
Default                                  : No
Forced                                   : No

Text #4
ID                                       : 7
Format                                   : PGS
Codec ID                                 : S_HDMV/PGS
Codec ID/Info                            : Picture based subtitle format used on BDs/HD-DVDs
Duration                                 : 1 h 56 min
Bit rate                                 : 39.5 kb/s
Count of elements                        : 2308
Stream size                              : 32.9 MiB (0%)
Title                                    : Commentary by Director Adrian Lyne
Language                                 : English
Default                                  : No
Forced                                   : No

Text #5
ID                                       : 8
Format                                   : PGS
Codec ID                                 : S_HDMV/PGS
Codec ID/Info                            : Picture based subtitle format used on BDs/HD-DVDs
Duration                                 : 1 h 58 min
Bit rate                                 : 42.0 kb/s
Count of elements                        : 3288
Stream size                              : 35.7 MiB (0%)
Title                                    : Commentary by Director Adrian Lyne
Language                                 : French
Default                                  : No
Forced                                   : No

Menu
00:00:00.000                             : :Chapter 01
00:01:59.661                             : :Chapter 02
00:12:34.128                             : :Chapter 03
00:16:53.470                             : :Chapter 04
00:21:46.638                             : :Chapter 05
00:25:59.599                             : :Chapter 06
00:40:25.131                             : :Chapter 07
00:55:06.970                             : :Chapter 08
00:59:47.333                             : :Chapter 09
01:13:42.584                             : :Chapter 10
01:16:10.399                             : :Chapter 11
01:25:48.143                             : :Chapter 12
01:28:31.055                             : :Chapter 13
01:35:27.638                             : :Chapter 14
01:40:53.422                             : :Chapter 15
01:46:04.316                             : :Chapter 16
01:55:20.413                             : :Chapter 17



Source

General
Complete name                            : Fatal.Attraction.1987.4K.Remaster.BluRay.Remux.1080p.AVC.TrueHD.5.1.mkv
Format                                   : Matroska
Format version                           : Version 4 / Version 2
File size                                : 29.4 GiB
Duration                                 : 1 h 59 min
Overall bit rate mode                    : Variable
Overall bit rate                         : 35.3 Mb/s
Movie name                               : FATAL ATTRACTION
Encoded date                             : UTC 2020-05-26 20:23:22
Writing application                      : mkvmerge v46.0.0 ('No Deeper Escape') 64-bit
Writing library                          : libebml v1.3.10 + libmatroska v1.5.2

Video
ID                                       : 1
ID in the original source medium         : 4113 (0x1011)
Format                                   : AVC
Format/Info                              : Advanced Video Codec
Format profile                           : High@L4.1
Format settings                          : CABAC / 4 Ref Frames
Format settings, CABAC                   : Yes
Format settings, ReFrames                : 4 frames
Codec ID                                 : V_MPEG4/ISO/AVC
Duration                                 : 1 h 59 min
Bit rate mode                            : Variable
Bit rate                                 : 31.8 Mb/s
Maximum bit rate                         : 35.0 Mb/s
Width                                    : 1 920 pixels
Height                                   : 1 080 pixels
Display aspect ratio                     : 16:9
Frame rate mode                          : Constant
Frame rate                               : 23.976 (24000/1001) FPS
Color space                              : YUV
Chroma subsampling                       : 4:2:0
Bit depth                                : 8 bits
Scan type                                : Progressive
Bits/(Pixel*Frame)                       : 0.640
Stream size                              : 26.5 GiB (90%)
Language                                 : English
Default                                  : No
Forced                                   : No
Original source medium                   : Blu-ray

Audio #1
ID                                       : 2
ID in the original source medium         : 4352 (0x1100)
Format                                   : TrueHD
Codec ID                                 : A_TRUEHD
Duration                                 : 1 h 59 min
Bit rate mode                            : Variable
Bit rate                                 : 3 127 kb/s
Maximum bit rate                         : 4 437 kb/s
Channel(s)                               : 6 channels
Channel positions                        : Front: L C R, Side: L R, LFE
Sampling rate                            : 48.0 kHz
Frame rate                               : 1 200.000 FPS (40 SPF)
Compression mode                         : Lossless
Stream size                              : 2.61 GiB (9%)
Title                                    : 5.1 Dolby TrueHD
Language                                 : English
Default                                  : Yes
Forced                                   : No
Original source medium                   : Blu-ray

Audio #2
ID                                       : 3
ID in the original source medium         : 4355 (0x1103)
Format                                   : AC-3
Format/Info                              : Audio Coding 3
Codec ID                                 : A_AC3
Duration                                 : 1 h 59 min
Bit rate mode                            : Constant
Bit rate                                 : 224 kb/s
Channel(s)                               : 2 channels
Channel positions                        : Front: L R
Sampling rate                            : 48.0 kHz
Frame rate                               : 31.250 FPS (1536 SPF)
Bit depth                                : 16 bits
Compression mode                         : Lossy
Stream size                              : 191 MiB (1%)
Title                                    : Commentary by Director Adrian Lyne
Language                                 : English
Service kind                             : Complete Main
Default                                  : No
Forced                                   : No
Original source medium                   : Blu-ray

Text #1
ID                                       : 4
ID in the original source medium         : 4608 (0x1200)
Format                                   : PGS
Muxing mode                              : zlib
Codec ID                                 : S_HDMV/PGS
Codec ID/Info                            : Picture based subtitle format used on BDs/HD-DVDs
Duration                                 : 1 h 50 min
Bit rate                                 : 26.0 kb/s
Count of elements                        : 2048
Stream size                              : 20.6 MiB (0%)
Title                                    : English
Language                                 : English
Default                                  : No
Forced                                   : No
Original source medium                   : Blu-ray

Text #2
ID                                       : 5
ID in the original source medium         : 4609 (0x1201)
Format                                   : PGS
Muxing mode                              : zlib
Codec ID                                 : S_HDMV/PGS
Codec ID/Info                            : Picture based subtitle format used on BDs/HD-DVDs
Duration                                 : 1 h 52 min
Bit rate                                 : 33.7 kb/s
Count of elements                        : 2022
Stream size                              : 27.2 MiB (0%)
Title                                    : English SDH
Language                                 : English
Default                                  : No
Forced                                   : No
Original source medium                   : Blu-ray

Text #3
ID                                       : 6
ID in the original source medium         : 4610 (0x1202)
Format                                   : PGS
Muxing mode                              : zlib
Codec ID                                 : S_HDMV/PGS
Codec ID/Info                            : Picture based subtitle format used on BDs/HD-DVDs
Duration                                 : 1 h 51 min
Bit rate                                 : 22.0 kb/s
Count of elements                        : 1898
Stream size                              : 17.6 MiB (0%)
Title                                    : Français
Language                                 : French
Default                                  : No
Forced                                   : No
Original source medium                   : Blu-ray

Text #4
ID                                       : 7
ID in the original source medium         : 4611 (0x1203)
Format                                   : PGS
Muxing mode                              : zlib
Codec ID                                 : S_HDMV/PGS
Codec ID/Info                            : Picture based subtitle format used on BDs/HD-DVDs
Duration                                 : 1 h 56 min
Bit rate                                 : 39.5 kb/s
Count of elements                        : 2308
Stream size                              : 32.9 MiB (0%)
Title                                    : Commentary by Director Adrian Lyne
Language                                 : English
Default                                  : No
Forced                                   : No
Original source medium                   : Blu-ray

Text #5
ID                                       : 8
ID in the original source medium         : 4612 (0x1204)
Format                                   : PGS
Muxing mode                              : zlib
Codec ID                                 : S_HDMV/PGS
Codec ID/Info                            : Picture based subtitle format used on BDs/HD-DVDs
Duration                                 : 1 h 58 min
Bit rate                                 : 42.0 kb/s
Count of elements                        : 3288
Stream size                              : 35.7 MiB (0%)
Title                                    : Commentary by Director Adrian Lyne
Language                                 : French
Default                                  : No
Forced                                   : No
Original source medium                   : Blu-ray

Menu
00:00:00.000                             : en:Chapter 01
00:01:59.661                             : en:Chapter 02
00:12:34.128                             : en:Chapter 03
00:16:53.470                             : en:Chapter 04
00:21:46.638                             : en:Chapter 05
00:25:59.599                             : en:Chapter 06
00:40:25.131                             : en:Chapter 07
00:55:06.970                             : en:Chapter 08
00:59:47.333                             : en:Chapter 09
01:13:42.584                             : en:Chapter 10
01:16:10.399                             : en:Chapter 11
01:25:48.143                             : en:Chapter 12
01:28:31.055                             : en:Chapter 13
01:35:27.638                             : en:Chapter 14
01:40:53.422                             : en:Chapter 15
01:46:04.316                             : en:Chapter 16
01:55:20.413                             : en:Chapter 17

  User comments

No comments have been posted yet.


Post anonymous comment
:) :( :D :P :-) B) 8o :? 8) ;) :-* :-( :| O:-D :-@ :facepalm :o) brb :warn :help :bad :love :idea :bomb :!


CAPTCHA Image 

  Sitefriends