Torrent details for "Total Dhamaal 2019 Hindi Movie WEB-DL x264 AC3"    Log in to bookmark

Loading...
Loading...
Torrent details
Please be advised this upload has ads cut or watermarked into the video. click here for more info
Cover
Download
Torrent rating (0 rated)
Controls:
Category:
Language:
Hindi Hindi
Total Size:
1,010.26 MB
Info Hash:
68136b13682831ac4f843eed3fdd3cf4e27f6873
Added By:
Added:  
31-05-2019 12:27 (edited 08-08-2019 20:56) by bigboy12:_moderator::_male::_sitelover::_sun::_turtle:
Views:
802
Health:
Seeds:
8
Leechers:
1
Completed:
172

File List (1) : 
Title:
Genre:
Action, Adventure, Comedy
Runtime:
n/A    -    Rating: 5.4
Director:
Plot:
And the madness and the craziness of the biggest franchise of laughter continues - #TotalDhamaal is the wildest adventure comedy ever. After Guddu and Jonny, small time conmen gets double-crossed of their illegal booty by their own colleague Daddu starts a mad crazy adventure between Guddu-Jonny and 3 other groups i.e Avinash and Bindu - an bickering couple about to be divorced; Lallan and Jhingur - Fire officers turned offenders and two weird siblings Aditya and Manav after they disagree to distribute the booty equally.

Description


Total Dhamaal 2019 Hindi Movie  WEB-DL x264 AC3


https://www.imdb.com/title/tt7639372/




[code]
General
Complete name                            : Total Dhamaal 2019 Hindi Movie  WEB-DL x264 AC3.mp4
Format                                   : MPEG-4
Format profile                           : Base Media
Codec ID                                 : isom (isom/iso2/avc1/mp41)
File size                                : 1 010 MiB
Duration                                 : 2 h 30 min
Overall bit rate                         : 939 kb/s
Video
ID                                       : 1
Format                                   : AVC
Format/Info                              : Advanced Video Codec
Format profile                           : [email protected]
Format settings                          : CABAC / 2 Ref Frames
Format settings, CABAC                   : Yes
Format settings, RefFrames               : 2 frames
Codec ID                                 : avc1
Codec ID/Info                            : Advanced Video Coding
Duration                                 : 2 h 30 min
Bit rate                                 : 733 kb/s
Width                                    : 960 pixels
Height                                   : 640 pixels
Display aspect ratio                     : 3:2
Frame rate mode                          : Constant
Frame rate                               : 24.000 FPS
Color space                              : YUV
Chroma subsampling                       : 4:2:0
Bit depth                                : 8 bits
Scan type                                : Progressive
Bits/(Pixel*Frame)                       : 0.050
Stream size                              : 799 MiB (79%)
Writing library                          : x264
Audio
ID                                       : 2
Format                                   : AC-3
Format/Info                              : Audio Coding 3
Codec ID                                 : ac-3
Duration                                 : 2 h 30 min
Bit rate mode                            : Constant
Bit rate                                 : 192 kb/s
Channel(s)                               : 6 channels
Channel positions                        : Front: L C R, Side: L R, LFE
Sampling rate                            : 44.1 kHz
Frame rate                               : 28.711 FPS (1536 SPF)
Bit depth                                : 16 bits
Compression mode                         : Lossy
Stream size                              : 207 MiB (20%)
Service kind                             : Complete Main
[/code]









  User comments

Posted: 2019-05-31 16:01:36 (12Wks ago) Report

avatar
Reppoints: 1186
Has adds in it.


Post anonymous comment
:) :( :D :P :-) B) 8o :? 8) ;) :-* :-( :| O:-D :-@ :facepalm :o) brb :warn :help :bad :love :idea :bomb :!


CAPTCHA Image