Torrent details for "Malibu Rescue 2019 NF WebDL S01 E01-08 Multi Audio Hindi English 1080p AVC DDP 5.1 MSub - mkvCinemas..."    Log in to bookmark

Loading...
Loading...
Torrent details
Cover
Download
Torrent rating (0 rated)
Controls:
Category:
Language:
English English
Total Size:
8.89 GB
Info Hash:
63d05c92d9fcec7842b07d0a2e58656ffbaf6ece
Added By:
Added:  
03-06-2019 14:38 (edited 04-06-2019 05:34) by Angelina:_admin::_female::_sitelover::_junkie::_sun:
Views:
1,413
Health:
Seeds:
0
Leechers:
0
Completed:
3

File List (10) : 
Title:
Genre:
Adventure
Runtime:
n/A    -    Rating: 4.5
Director:
n/A
Plot:
A ragtag group of aspiring junior lifeguards from The Valley compete against the snobby local kids for bragging rights and the ultimate tower at Malibu beach.

Description






********************************

Malibu Rescue 2019 NF WebDL S01 E01-08 Multi Audio Hindi English 1080p AVC DDP 5.1 MSub - mkvCinemas [Telly]

********************************

Mediainfo:-
Format                      : Matroska
Format version              : Version 4 / Version 2
File size                   : 1.50 GiB
Duration                    : 23mn 26s
Overall bit rate mode       : Variable
Overall bit rate            : 9 149 Kbps

Video
ID                          : 1
Format                      : AVC
Format/Info                 : Advanced Video Codec
Format profile              : Main@L4.0
Format settings, CABAC      : Yes
Format settings, ReFrames   : 3 frames
Codec ID                    : V_MPEG4/ISO/AVC
Duration                    : 23mn 26s
Bit rate mode               : Variable
Bit rate                    : 6 407 Kbps
Nominal bit rate            : 7 150 Kbps
Maximum bit rate            : 10.7 Mbps
Width                       : 1 920 pixels
Height                      : 1 080 pixels
Display aspect ratio        : 16:9
Frame rate mode             : Constant
Frame rate                  : 23.976 fps
Color space                 : YUV

Audio #1
ID                          : 2
Format                      : E-AC-3
Format/Info                 : Audio Coding 3
Format settings, Endianness : Big
Codec ID                    : A_EAC3
Duration                    : 23mn 26s
Bit rate mode               : Constant
Bit rate                    : 640 Kbps
Channel(s)                  : 6 channels
Channel positions           : Front: L C R, Side: L R, LFE
Sampling rate               : 48.0 KHz
Compression mode            : Lossy
Stream size                 : 107 MiB (7%)
Title                       : English
Language                    : English
Default                     : Yes
Forced                      : No

Audio #2
ID                          : 3
Format                      : E-AC-3
Format/Info                 : Audio Coding 3
Format settings, Endianness : Big
Codec ID                    : A_EAC3
Duration                    : 23mn 26s
Bit rate mode               : Constant
Bit rate                    : 640 Kbps
Channel(s)                  : 6 channels
Channel positions           : Front: L C R, Side: L R, LFE
Sampling rate               : 48.0 KHz
Compression mode            : Lossy
Stream size                 : 107 MiB (7%)
Title                       : Spanish
Language                    : Spanish
Default                     : No
Forced                      : No

Audio #3
ID                          : 4
Format                      : E-AC-3
Format/Info                 : Audio Coding 3
Format settings, Endianness : Big
Codec ID                    : A_EAC3
Duration                    : 23mn 26s
Bit rate mode               : Constant
Bit rate                    : 640 Kbps
Channel(s)                  : 6 channels
Channel positions           : Front: L C R, Side: L R, LFE
Sampling rate               : 48.0 KHz
Compression mode            : Lossy
Stream size                 : 107 MiB (7%)
Title                       : Hindi
Language                    : Hindi
Default                     : No
Forced                      : No

Audio #4
ID                          : 5
Format                      : E-AC-3
Format/Info                 : Audio Coding 3
Format settings, Endianness : Big
Codec ID                    : A_EAC3
Duration                    : 23mn 26s
Bit rate mode               : Constant
Bit rate                    : 640 Kbps
Channel(s)                  : 6 channels
Channel positions           : Front: L C R, Side: L R, LFE
Sampling rate               : 48.0 KHz
Compression mode            : Lossy
Stream size                 : 107 MiB (7%)
Title                       : Mandarin
Language                    : Chinese
Default                     : No
Forced                      : No

Subtitles:

Language                    : English
Title                       : Castilian
Language                    : Spanish
Language                    : French
Language                    : German
Language                    : Italian
Language                    : Portuguese
Title                       : Brazilian Portuguese
Language                    : Polish
Language                    : Turkish
Language                    : Swedish
Language                    : Danish
Language                    : Finnish
Language                    : Dutch
Language                    : Norwegian
Language                    : Russian
Language                    : Hungarian
Language                    : Greek
Language                    : Hebrew
Language                    : Arabic
Language                    : Romanian
Language                    : Czech
Language                    : Hindi
Language                    : Indonesian
Language                    : Thai
Language                    : Korean
Title                       : Chinese (Simplified)
Title                       : Chinese (Traditional)
Language                    : Japanese



********************************

Wherever you Share our Stuffs, Give Proper Credit to "mkvCinemas @Team Telly"
We Keep All Torrents. In case of re-seed, please pm.


********************************






********************************



********************************

  User comments

Posted: 2019-06-03 22:33:31 (52Wks ago) Report

avatar
Reppoints: 10
shouldnt this be in movie?


Posted: 2019-06-04 05:34:37 (52Wks ago) Report

avatar
Reppoints: 2111
There's a movie and tv-serie. This is the series version, so it is not a movie.


Posted: 2019-06-05 04:57:19 (52Wks ago) Report

avatar
Reppoints: 40
Movie was already uploaded by me. You should use search bar.  @G4teKeep3r


Post anonymous comment
:) :( :D :P :-) B) 8o :? 8) ;) :-* :-( :| O:-D :-@ :facepalm :o) brb :warn :help :bad :love :idea :bomb :!


CAPTCHA Image