Torrent details for "Belinda Carlisle - A Woman & A Man 1996 (2014) [Remastered & Expanded Special Edition]"    Log in to bookmark

Loading...
Loading...
Torrent details
Cover
Download
Torrent rating (0 rated)
Controls:
Category:
Language:
English English
Total Size:
876.78 MB
Info Hash:
b723a32cd4bc99818f830287d2674c6bb59c2ba7
Added By:
was95:_trusted_uploader::_sun:  
Added:  
12-06-2019 10:40
Views:
324
Health:
Seeds:
18
Leechers:
11
Completed:
78

File List (35) : 

Description


Quality-Lossless
Release-1996
Duration-01:59:42
File Size-919.4 MB
Genre-Pop
Cover Size-1200px

----------------------------------------------------------------------------------------------
Analyzed: A Woman & A Man (Remastered & Expanded Special Edition) CD1 /  Artist: Belinda Carlisle
----------------------------------------------------------------------------------------------
DR Peak RMS Duration Title [codec]
----------------------------------------------------------------------------------------------
DR8 -0.05 dB -10.16 dB 4:07 01 - In Too Deep [flac]
DR7 -0.05 dB -9.25 dB 2:58 02 - California [flac]
DR8 -0.05 dB -10.93 dB 5:12 03 - A Woman And A Man [flac]
DR7 -0.05 dB -9.71 dB 4:32 04 - Remember September [flac]
DR8 -0.05 dB -10.88 dB 4:09 05 - Listen To Love [flac]
DR8 -0.05 dB -9.52 dB 3:12 06 - Always Breaking My Heart [flac]
DR8 -0.05 dB -10.06 dB 4:08 07 - Love Doesn't Live Here [flac]
DR9 -0.05 dB -11.34 dB 3:14 08 - He Goes On [flac]
DR8 -0.05 dB -11.37 dB 4:19 09 - Kneel At Your Feet [flac]
DR9 -0.65 dB -11.10 dB 3:50 10 - Love In The Key Of C [flac]
DR9 -0.05 dB -12.43 dB 3:37 11 - My Heart Goes Out To You [flac]
DR6 -0.05 dB -9.03 dB 4:23 12 - In Too Deep (Acoustic) [flac]
DR7 -0.35 dB -9.64 dB 3:56 13 - Circle In The Sand (Acoustic) [flac]
----------------------------------------------------------------------------------------------
Number of files:    13
Official DR value:  DR8

Sampling rate: 44100 Hz
Average bitrate: 981kbs
Bits per sample: 16 bit

----------------------------------------------------------------------------------------------
Analyzed: A Woman & A Man (Remastered & Expanded Special Edition) CD2 /  Artist: Belinda Carlisle
----------------------------------------------------------------------------------------------
DR Peak RMS Duration Title [codec]
----------------------------------------------------------------------------------------------
DR8 -0.05 dB -11.23 dB 4:07 01 - The Ballad Of Lucy Jordan [flac]
DR8 -0.05 dB -10.07 dB 4:11 02 - Jealous Guy [flac]
DR8 -0.05 dB -9.99 dB 3:08 03 - I See No Ships [flac]
DR8 -0.05 dB -9.56 dB 3:16 04 - Love Walks In [flac]
DR8 -0.05 dB -9.17 dB 3:04 05 - Submission [flac]
DR8 -0.05 dB -10.02 dB 3:16 06 - I Won't Say I'm In Love [flac]
DR8 -0.05 dB -10.25 dB 4:46 07 - Big Scary Animal (Live) [flac]
DR8 -0.05 dB -9.15 dB 5:11 08 - I Get Weak (Live) [flac]
DR8 -0.05 dB -8.85 dB 4:21 09 - Leave A Light On (Live) [flac]
DR8 -0.05 dB -9.24 dB 5:12 10 - Live Your Life Be Free (Live) [flac]
DR8 -0.05 dB -8.89 dB 3:50 11 - In Too Deep (Live) [flac]
DR8 -0.05 dB -9.87 dB 4:16 12 - Heaven Is A Place On Earth (Live) [flac]
DR8 -0.05 dB -10.69 dB 6:41 13 - Remember September (JPO Club Pipes) [flac]
DR8 -0.05 dB -10.56 dB 6:21 14 - Remember September (Beam's Club Mix) [flac]
DR9 -0.11 dB -11.45 dB 6:11 15 - Remember September (Beam's Vocal Mix) [flac]
----------------------------------------------------------------------------------------------
Number of files:    15
Official DR value:  DR8

Sampling rate: 44100 Hz
Average bitrate: 1048kbs
Bits per sample: 16 bit

  User comments

No comments have been posted yet.


Post anonymous comment
:) :( :D :P :-) B) 8o :? 8) ;) :-* :-( :| O:-D :-@ :facepalm :o) brb :warn :help :bad :love :idea :bomb :!


CAPTCHA Image