Torrent details for "Fatal Fury - The Motion Picture (1994) 1080p BDRip x265 FLAC 2.0 Goki [SEV]"    Log in to bookmark

Loading...
Loading...
Torrent details
Cover
Download
Torrent rating (0 rated)
Controls:
Category:
Language:
English English
Total Size:
12.04 GB
Info Hash:
c62ae064387f7932b094fb1134eb425be52d8a7e
Added By:
Goki:_trusted_uploader:  
Added:  
08-07-2019 02:56
Views:
328
Health:
Seeds:
2
Leechers:
1
Completed:
64

File List (7) : 

Description


Screenshots





Media Information

Unique ID                                : 108479550030324137252740063093311642052 (0x519C66C08EE854EC9D790ED1BA4799C4)
Complete name                            : Fatal Fury - The Motion Picture (1994) 1080p BDRip x265 FLAC 2.0 Goki [SEV].mkv
Format                                   : Matroska
Format version                           : Version 4
File size                                : 12.0 GiB
Duration                                 : 1 h 39 min
Overall bit rate mode                    : Variable
Overall bit rate                         : 17.3 Mb/s
Movie name                               : Fatal Fury - The Motion Picture (1994) 1080p BDRip x265 FLAC 2.0 Goki [SEV]
Encoded date                             : UTC 2019-07-07 02:18:15
Writing application                      : mkvmerge v28.2.0 ('The Awakening') 64-bit
Writing library                          : libebml v1.3.6 + libmatroska v1.4.9 / Lavf57.73.100
Writing application                      : Internet Friendly Media Encoder v7.7 ('Prism Ark')
Writing library                          : IFME v7.7 amd64 windows

Video
ID                                       : 1
Format                                   : HEVC
Format/Info                              : High Efficiency Video Coding
Format profile                           : Main 10@L4@Main
Codec ID                                 : V_MPEGH/ISO/HEVC
Duration                                 : 1 h 39 min
Bit rate                                 : 16.0 Mb/s
Width                                    : 1 920 pixels
Height                                   : 1 080 pixels
Display aspect ratio                     : 16:9
Frame rate mode                          : Constant
Frame rate                               : 23.976 (24000/1001) FPS
Color space                              : YUV
Chroma subsampling                       : 4:2:0
Bit depth                                : 10 bits
Bits/(Pixel*Frame)                       : 0.322
Stream size                              : 11.2 GiB (93%)
Writing library                          : x265 2.9+8-27d8424c799d:[Windows][MSVC 1915][64 bit] 10bit
Encoding settings                        : cpuid=1111039 / frame-threads=3 / numa-pools=8 / wpp / no-pmode / no-pme / no-psnr / no-ssim / log-level=2 / input-csp=1 / input-res=1920x1080 / interlace=0 / total-frames=0 / level-idc=0 / high-tier=1 / uhd-bd=0 / ref=4 / no-allow-non-conformance / no-repeat-headers / annexb / no-aud / no-hrd / info / hash=0 / no-temporal-layers / open-gop / min-keyint=23 / keyint=250 / gop-lookahead=0 / bframes=8 / b-adapt=2 / b-pyramid / bframe-bias=0 / rc-lookahead=100 / lookahead-slices=4 / scenecut=40 / radl=0 / no-intra-refresh / ctu=64 / min-cu-size=8 / no-rect / no-amp / max-tu-size=32 / tu-inter-depth=2 / tu-intra-depth=2 / limit-tu=4 / rdoq-level=2 / dynamic-rd=0.00 / no-ssim-rd / signhide / no-tskip / nr-intra=0 / nr-inter=0 / no-constrained-intra / no-strong-intra-smoothing / max-merge=3 / limit-refs=2 / limit-modes / me=3 / subme=5 / merange=57 / temporal-mvp / weightp / weightb / no-analyze-src-pics / deblock=0:0 / sao / no-sao-non-deblock / rd=6 / no-early-skip / rskip / no-fast-intra / no-tskip-fast / no-cu-lossless / b-intra / no-splitrd-skip / rdpenalty=0 / psy-rd=1.30 / psy-rdoq=2.00 / no-rd-refine / no-lossless / cbqpoffs=0 / crqpoffs=0 / rc=crf / crf=17.0 / qcomp=0.60 / qpstep=4 / stats-write=0 / stats-read=0 / ipratio=1.40 / pbratio=1.30 / aq-mode=2 / aq-strength=1.10 / cutree / zone-count=0 / no-strict-cbr / qg-size=32 / no-rc-grain / qpmax=69 / qpmin=0 / no-const-vbv / sar=1 / overscan=0 / videoformat=5 / range=0 / colorprim=2 / transfer=2 / colormatrix=2 / chromaloc=0 / display-window=0 / max-cll=0,0 / min-luma=0 / max-luma=1023 / log2-max-poc-lsb=8 / vui-timing-info / vui-hrd-info / slices=1 / no-opt-qp-pps / no-opt-ref-list-length-pps / no-multi-pass-opt-rps / scenecut-bias=0.05 / no-opt-cu-delta-qp / no-aq-motion / no-hdr / no-hdr-opt / no-dhdr10-opt / no-idr-recovery-sei / analysis-reuse-level=5 / scale-factor=0 / refine-intra=0 / refine-inter=0 / refine-mv=0 / no-limit-sao / ctu-info=0 / no-lowpass-dct / refine-mv-type=0 / copy-pic=1 / max-ausize-factor=1.0 / no-dynamic-refine / no-single-sei
Language                                 : English
Default                                  : Yes
Forced                                   : No

Audio #1
ID                                       : 2
Format                                   : FLAC
Format/Info                              : Free Lossless Audio Codec
Codec ID                                 : A_FLAC
Duration                                 : 1 h 39 min
Bit rate mode                            : Variable
Bit rate                                 : 556 kb/s
Channel(s)                               : 2 channels
Channel layout                           : L R
Sampling rate                            : 48.0 kHz
Frame rate                               : 10.417 FPS (4608 SPF)
Bit depth                                : 16 bits
Compression mode                         : Lossless
Stream size                              : 397 MiB (3%)
Title                                    : Stereo
Language                                 : English
Default                                  : Yes
Forced                                   : No

Audio #2
ID                                       : 3
Format                                   : FLAC
Format/Info                              : Free Lossless Audio Codec
Codec ID                                 : A_FLAC
Duration                                 : 1 h 39 min
Bit rate mode                            : Variable
Bit rate                                 : 671 kb/s
Channel(s)                               : 2 channels
Channel layout                           : L R
Sampling rate                            : 48.0 kHz
Frame rate                               : 10.417 FPS (4608 SPF)
Bit depth                                : 16 bits
Compression mode                         : Lossless
Stream size                              : 479 MiB (4%)
Title                                    : Stereo
Language                                 : Japanese
Default                                  : No
Forced                                   : No

Text #1
ID                                       : 4
Format                                   : PGS
Codec ID                                 : S_HDMV/PGS
Codec ID/Info                            : Picture based subtitle format used on BDs/HD-DVDs
Duration                                 : 1 h 39 min
Bit rate                                 : 30.7 kb/s
Count of elements                        : 2239
Stream size                              : 21.8 MiB (0%)
Language                                 : English
Default                                  : No
Forced                                   : No

Text #2
ID                                       : 5
Format                                   : PGS
Codec ID                                 : S_HDMV/PGS
Codec ID/Info                            : Picture based subtitle format used on BDs/HD-DVDs
Duration                                 : 1 h 39 min
Bit rate                                 : 1 550 b/s
Count of elements                        : 89
Stream size                              : 1.10 MiB (0%)
Language                                 : English
Default                                  : No
Forced                                   : No

Menu
00:00:00.000                             : en:Chapter 01
00:05:07.223                             : en:Chapter 02
00:09:25.314                             : en:Chapter 03
00:12:05.224                             : en:Chapter 04
00:15:24.840                             : en:Chapter 05
00:19:29.918                             : en:Chapter 06
00:26:06.106                             : en:Chapter 07
00:28:24.661                             : en:Chapter 08
00:30:46.928                             : en:Chapter 09
00:32:41.918                             : en:Chapter 10
00:36:51.292                             : en:Chapter 11
00:41:35.201                             : en:Chapter 12
00:47:00.150                             : en:Chapter 13
00:51:32.672                             : en:Chapter 14
00:57:10.218                             : en:Chapter 15
00:59:53.590                             : en:Chapter 16
01:03:53.746                             : en:Chapter 17
01:06:09.131                             : en:Chapter 18
01:09:54.732                             : en:Chapter 19
01:13:50.634                             : en:Chapter 20
01:19:12.456                             : en:Chapter 21
01:25:52.856                             : en:Chapter 22
01:29:24.650                             : en:Chapter 23
01:32:31.504                             : en:Chapter 24
01:36:10.723                             : en:Chapter 25
01:39:49.608                             : en:Chapter 26

Source Information

Unique ID                                : 24407598255118996659182147583419549018 (0x125CBB80DC618A85A24A1E5BF157055A)
Complete name                            : Fatal_Fury_-_The_Motion_Picture_t00.mkv
Format                                   : Matroska
Format version                           : Version 2
File size                                : 17.9 GiB
Duration                                 : 1 h 39 min
Overall bit rate mode                    : Variable
Overall bit rate                         : 25.7 Mb/s
Movie name                               : Fatal Fury - The Motion Picture
Encoded date                             : UTC 2019-07-04 02:57:47
Writing application                      : MakeMKV v1.10.8 win(x64-release)
Writing library                          : libmakemkv v1.10.8 (1.3.5/1.4.7) win(x64-release)

Video
ID                                       : 1
ID in the original source medium         : 4113 (0x1011)
Format                                   : AVC
Format/Info                              : Advanced Video Codec
Format profile                           : High@L4.1
Format settings                          : CABAC / 3 Ref Frames
Format settings, CABAC                   : Yes
Format settings, RefFrames               : 3 frames
Codec ID                                 : V_MPEG4/ISO/AVC
Duration                                 : 1 h 39 min
Bit rate mode                            : Variable
Bit rate                                 : 25.0 Mb/s
Maximum bit rate                         : 31.0 Mb/s
Width                                    : 1 920 pixels
Height                                   : 1 080 pixels
Display aspect ratio                     : 16:9
Frame rate mode                          : Constant
Frame rate                               : 23.976 (24000/1001) FPS
Color space                              : YUV
Chroma subsampling                       : 4:2:0
Bit depth                                : 8 bits
Scan type                                : Progressive
Bits/(Pixel*Frame)                       : 0.503
Stream size                              : 17.0 GiB (95%)
Writing library                          : x264 core 146 r2538 121396c
Encoding settings                        : cabac=1 / ref=4 / deblock=1:-1:-1 / analyse=0x3:0x133 / me=umh / subme=10 / psy=1 / psy_rd=1.00:0.15 / mixed_ref=1 / me_range=24 / chroma_me=1 / trellis=2 / 8x8dct=1 / cqm=0 / deadzone=21,11 / fast_pskip=1 / chroma_qp_offset=-3 / threads=12 / lookahead_threads=1 / sliced_threads=0 / slices=4 / nr=0 / decimate=1 / interlaced=0 / bluray_compat=1 / constrained_intra=0 / bframes=3 / b_pyramid=1 / b_adapt=2 / b_bias=0 / direct=3 / weightb=1 / open_gop=1 / weightp=1 / keyint=24 / keyint_min=1 / scenecut=40 / intra_refresh=0 / rc_lookahead=24 / rc=2pass / mbtree=1 / bitrate=25000 / ratetol=1.0 / qcomp=0.60 / qpmin=0 / qpmax=69 / qpstep=4 / cplxblur=20.0 / qblur=0.5 / vbv_maxrate=31000 / vbv_bufsize=30000 / nal_hrd=vbr / filler=0 / ip_ratio=1.40 / aq=1:1.00
Language                                 : English
Default                                  : No
Forced                                   : No
Color range                              : Limited
Color primaries                          : BT.709
Transfer characteristics                 : BT.709
Matrix coefficients                      : BT.709
Original source medium                   : Blu-ray

Audio #1
ID                                       : 2
ID in the original source medium         : 4352 (0x1100)
Format                                   : FLAC
Format/Info                              : Free Lossless Audio Codec
Codec ID                                 : A_FLAC
Duration                                 : 1 h 39 min
Bit rate mode                            : Variable
Bit rate                                 : 556 kb/s
Channel(s)                               : 2 channels
Channel layout                           : L R
Sampling rate                            : 48.0 kHz
Frame rate                               : 10.417 FPS (4608 SPF)
Bit depth                                : 16 bits
Compression mode                         : Lossless
Stream size                              : 397 MiB (2%)
Title                                    : Stereo
Writing library                          : MakeMKV v1.10.8 win(x64-release)
Language                                 : English
Default                                  : Yes
Forced                                   : No
Original source medium                   : Blu-ray

Audio #2
ID                                       : 3
ID in the original source medium         : 4353 (0x1101)
Format                                   : FLAC
Format/Info                              : Free Lossless Audio Codec
Codec ID                                 : A_FLAC
Duration                                 : 1 h 39 min
Bit rate mode                            : Variable
Bit rate                                 : 671 kb/s
Channel(s)                               : 2 channels
Channel layout                           : L R
Sampling rate                            : 48.0 kHz
Frame rate                               : 10.417 FPS (4608 SPF)
Bit depth                                : 16 bits
Compression mode                         : Lossless
Stream size                              : 479 MiB (3%)
Title                                    : Stereo
Writing library                          : MakeMKV v1.10.8 win(x64-release)
Language                                 : Japanese
Default                                  : No
Forced                                   : No
Original source medium                   : Blu-ray

Text #1
ID                                       : 4
ID in the original source medium         : 4608 (0x1200)
Format                                   : PGS
Codec ID                                 : S_HDMV/PGS
Codec ID/Info                            : Picture based subtitle format used on BDs/HD-DVDs
Duration                                 : 1 h 39 min
Bit rate                                 : 30.7 kb/s
Count of elements                        : 2239
Stream size                              : 21.8 MiB (0%)
Language                                 : English
Default                                  : No
Forced                                   : No
Original source medium                   : Blu-ray

Text #2
ID                                       : 6
ID in the original source medium         : 4609 (0x1201)
Format                                   : PGS
Codec ID                                 : S_HDMV/PGS
Codec ID/Info                            : Picture based subtitle format used on BDs/HD-DVDs
Duration                                 : 1 h 39 min
Bit rate                                 : 1 550 b/s
Count of elements                        : 89
Stream size                              : 1.10 MiB (0%)
Language                                 : English
Default                                  : No
Forced                                   : No
Original source medium                   : Blu-ray

Menu
00:00:00.000                             : en:Chapter 01
00:05:07.223                             : en:Chapter 02
00:09:25.314                             : en:Chapter 03
00:12:05.224                             : en:Chapter 04
00:15:24.840                             : en:Chapter 05
00:19:29.918                             : en:Chapter 06
00:26:06.106                             : en:Chapter 07
00:28:24.661                             : en:Chapter 08
00:30:46.928                             : en:Chapter 09
00:32:41.918                             : en:Chapter 10
00:36:51.292                             : en:Chapter 11
00:41:35.201                             : en:Chapter 12
00:47:00.150                             : en:Chapter 13
00:51:32.672                             : en:Chapter 14
00:57:10.218                             : en:Chapter 15
00:59:53.590                             : en:Chapter 16
01:03:53.746                             : en:Chapter 17
01:06:09.131                             : en:Chapter 18
01:09:54.732                             : en:Chapter 19
01:13:50.634                             : en:Chapter 20
01:19:12.456                             : en:Chapter 21
01:25:52.856                             : en:Chapter 22
01:29:24.650                             : en:Chapter 23
01:32:31.504                             : en:Chapter 24
01:36:10.723                             : en:Chapter 25
01:39:49.608                             : en:Chapter 26

.........................................................................................................................................

We have no issue with individuals posting or re-uploading our torrents on a platform we aren't on. However, if this is something you'd like to do, please do so in a 'as-is' format. We ask that you do not create a new torrent, include all descriptions you see above including the SEV logo, tags, notes and screenshots. If you'd like to become a permanent poster on a website we don't post to, feel free to get in contact with a Sublime Encoded Video member.


We are recruiting/training new members for SEV & seedbox providers as well as people to help out with subtitles.
As you already know, we deliver quality, so you know the standard.
If you're interested, feel free to contact any of the team members.

Similar torrents

Name 
DL
Uploader
Size 
S/L 
Added

  User comments

No comments have been posted yet.


Post anonymous comment
:) :( :D :P :-) B) 8o :? 8) ;) :-* :-( :| O:-D :-@ :facepalm :o) brb :warn :help :bad :love :idea :bomb :!


CAPTCHA Image