Torrent details for "Formula1.2019.British.Grand.Prix.Drivers.Press.Conference.720p.WEBRiP.H264-BaNHaMMER"    Log in to bookmark

Loading...
Loading...
Torrent details
Cover
Download
Torrent rating (0 rated)
Controls:
Category:
Language:
English English
Total Size:
265.89 MB
Info Hash:
46cefc2f6caaff121f66382abcdc41104dce7bf0
Added By:
Added:  
11-07-2019 19:42
Views:
199
Health:
Seeds:
1
Leechers:
0
Completed:
46

File List (1) : 
Title:
Formula 1 (2018)
Genre:
Sport
Runtime:
n/A    -    Rating: n/A
Director:
n/A
Cast:
n/A
Plot:
Know what this is about? Be the first one to add a plot.

Description
Formula1.2019.British.Grand.Prix.Drivers.Press.Conference.720p.WEBRiP.H264-BaNHaMMER





F1 Info



F1:Formula1:BritishRace:BritishGp2019:f12019

Quality = IPTV

[code]
Format                                   : Matroska
Format version                           : Version 4
File size                                : 266 MiB
Duration                                 : 39 min 15 s
Overall bit rate                         : 947 kb/s
Encoded date                             : UTC 2019-07-11 18:08:54
Writing application                      : mkvmerge v34.0.0 ('Sight and Seen') 64-bit
Writing library                          : libebml v1.3.7 + libmatroska v1.5.0

Video
ID                                       : 1
Format                                   : AVC
Format/Info                              : Advanced Video Codec
Format profile                           : Main@L3.1
Format settings                          : CABAC / 3 Ref Frames
Format settings, CABAC                   : Yes
Format settings, Reference frames        : 3 frames
Codec ID                                 : V_MPEG4/ISO/AVC
Duration                                 : 39 min 15 s
Bit rate                                 : 817 kb/s
Width                                    : 1 280 pixels
Height                                   : 720 pixels
Display aspect ratio                     : 16:9
Frame rate mode                          : Constant
Frame rate                               : 25.000 FPS
Color space                              : YUV
Chroma subsampling                       : 4:2:0
Bit depth                                : 8 bits
Scan type                                : Progressive
Bits/(Pixel*Frame)                       : 0.035
Stream size                              : 229 MiB (86%)
Default                                  : Yes
Forced                                   : No
Color range                              : Limited
Color primaries                          : BT.709
Transfer characteristics                 : BT.709
Matrix coefficients                      : BT.709

Audio
ID                                       : 2
Format                                   : AAC LC
Format/Info                              : Advanced Audio Codec Low Complexity
Codec ID                                 : A_AAC-2
Duration                                 : 39 min 15 s
Bit rate                                 : 128 kb/s
Channel(s)                               : 2 channels
Channel layout                           : L R
Sampling rate                            : 44.1 kHz
Frame rate                               : 43.066 FPS (1024 SPF)
Compression mode                         : Lossy
Stream size                              : 35.9 MiB (14%)
Default                                  : Yes
Forced                                   : No
[/code]

  User comments

No comments have been posted yet.


Post anonymous comment
:) :( :D :P :-) B) 8o :? 8) ;) :-* :-( :| O:-D :-@ :facepalm :o) brb :warn :help :bad :love :idea :bomb :!


CAPTCHA Image