Torrent details for "Formula1.2019.R10.British.Grand.Prix.Live.From.Silverstone.SkyF1HD.1080P"    Log in to bookmark

Loading...
Loading...
Torrent details
Cover
Download
Torrent rating (0 rated)
Controls:
Category:
Language:
English English
Total Size:
849.73 MB
Info Hash:
c3db5714a57eb32197a8498061273245df945788
Added By:
Added:  
11-07-2019 21:34
Views:
927
Health:
Seeds:
11
Leechers:
3
Completed:
162

File List (1) : 
Title:
Genre:
Sport
Runtime:
n/A    -    Rating: n/A
Director:
n/A
Cast:
n/A
Plot:
Know what this is about? Be the first one to add a plot.

Description
Formula1.2019.R10.British.Grand.Prix.Live.From.Silverstone.SkyF1HD.1080P





F1 Info



F1:Formula1:BritishRace:BritishGp2019:f12019

Quality = IPTV

Thanks to the original Cappers/uploaders

[code]
Format                                   : Matroska
Format version                           : Version 4 / Version 2
File size                                : 850 MiB
Duration                                 : 21 min 15 s
Overall bit rate                         : 5 587 kb/s
Encoded date                             : UTC 2019-07-11 03:34:57
Writing application                      : mkvmerge v31.0.0 ('Dolores In A Shoestand') 64-bit
Writing library                          : libebml v1.3.6 + libmatroska v1.4.9

Video
ID                                       : 1
Format                                   : AVC
Format/Info                              : Advanced Video Codec
Format profile                           : [email protected]
Format settings, CABAC                   : Yes
Format settings, ReFrames                : 4 frames
Codec ID                                 : V_MPEG4/ISO/AVC
Duration                                 : 21 min 15 s
Bit rate                                 : 5 428 kb/s
Width                                    : 1 920 pixels
Height                                   : 1 080 pixels
Display aspect ratio                     : 16:9
Frame rate mode                          : Constant
Frame rate                               : 25.000 FPS
Color space                              : YUV
Chroma subsampling                       : 4:2:0
Bit depth                                : 8 bits
Scan type                                : Progressive
Bits/(Pixel*Frame)                       : 0.105
Stream size                              : 825 MiB (97%)
Default                                  : Yes
Forced                                   : No

Audio
ID                                       : 2
Format                                   : AAC
Format/Info                              : Advanced Audio Codec
Format profile                           : LC
Codec ID                                 : A_AAC
Duration                                 : 21 min 15 s
Bit rate                                 : 157 kb/s
Channel(s)                               : 2 channels
Channel positions                        : Front: L R
Sampling rate                            : 48.0 kHz
Frame rate                               : 46.875 FPS (1024 spf)
Compression mode                         : Lossy
Delay relative to video                  : -15 ms
Stream size                              : 23.9 MiB (3%)
Language                                 : English
Default                                  : Yes
Forced                                   : No


[/code]

  User comments

No comments have been posted yet.


Post anonymous comment
:) :( :D :P :-) B) 8o :? 8) ;) :-* :-( :| O:-D :-@ :facepalm :o) brb :warn :help :bad :love :idea :bomb :!


CAPTCHA Image