Torrent details for "NTT Indycar Series 2019 Honda Indy Toronto HDTV x264 720"    Log in to bookmark

Loading...
Loading...
Torrent details
Cover
Download
Torrent rating (0 rated)
Controls:
Category:
Language:
English English
Total Size:
3.08 GB
Info Hash:
ec4722d261fad01b9b8dea939a3614f6cea6ee7e
Added By:
HackRF:_trusted_uploader:  
Added:  
14-07-2019 23:40
Views:
358
Health:
Seeds:
0
Leechers:
0
Completed:
115

File List (3) : 

Description
Verizon IndyCar Series 2019



Honda Indy Toronto
Streets of Toronto - Toronto, Ontario
3:30 PM ET
Jul 14  2019






General
Complete name                            : NTT Indycar Series 2019 Honda Indy Toronto HDTV x264 720.mkv
Format                                   : Matroska
Format version                           : Version 4
File size                                : 3.08 GiB
Duration                                 : 1 h 29 min
Overall bit rate                         : 4 932 kb/s
Encoded date                             : UTC 2019-07-14 22:14:37
Writing application                      : mkvmerge v28.2.0 ('The Awakening') 64-bit
Writing library                          : libebml v1.3.6 + libmatroska v1.4.9

Video
ID                                       : 1
Format                                   : AVC
Format/Info                              : Advanced Video Codec
Format profile                           : [email protected]
Format settings                          : CABAC / 5 Ref Frames
Format settings, CABAC                   : Yes
Format settings, RefFrames               : 5 frames
Codec ID                                 : V_MPEG4/ISO/AVC
Duration                                 : 1 h 29 min
Bit rate                                 : 4 544 kb/s
Width                                    : 1 280 pixels
Height                                   : 720 pixels
Display aspect ratio                     : 16:9
Frame rate mode                          : Constant
Frame rate                               : 59.940 (59940/1000) FPS
Original frame rate                      : 59.940 (60000/1001) FPS
Color space                              : YUV
Chroma subsampling                       : 4:2:0
Bit depth                                : 8 bits
Scan type                                : Progressive
Bits/(Pixel*Frame)                       : 0.082
Stream size                              : 2.84 GiB (92%)
Writing library                          : x264 core 152 r2851 ba24899
Default                                  : Yes
Forced                                   : No

Audio
ID                                       : 2
Format                                   : AC-3
Format/Info                              : Audio Coding 3
Commercial name                          : Dolby Digital
Codec ID                                 : A_AC3
Duration                                 : 1 h 29 min
Bit rate mode                            : Constant
Bit rate                                 : 384 kb/s
Channel(s)                               : 6 channels
Channel layout                           : L R C LFE Ls Rs
Sampling rate                            : 48.0 kHz
Frame rate                               : 31.250 FPS (1536 SPF)
Bit depth                                : 16 bits
Compression mode                         : Lossy
Stream size                              : 246 MiB (8%)
Language                                 : new
Service kind                             : Complete Main
Default                                  : Yes
Forced                                   : No


  User comments

No comments have been posted yet.


Post anonymous comment
:) :( :D :P :-) B) 8o :? 8) ;) :-* :-( :| O:-D :-@ :facepalm :o) brb :warn :help :bad :love :idea :bomb :!


CAPTCHA Image