Torrent details for "Formula.E.2018-19.R13.New.York.City.ePrix.Full.Weekend.1080p.WEBRiP.H264-BaNHaMMER"    Log in to bookmark

Loading...
Loading...
Torrent details
Cover
Download
Torrent rating (0 rated)
Controls:
Category:
Language:
English English
Total Size:
19.53 GB
Info Hash:
aacaaf72e56843ac69279ab091923b8342552c72
Added By:
Added:  
15-07-2019 19:33
Views:
256
Health:
Seeds:
1
Leechers:
2
Completed:
9

File List (8) : 
Genre:
Sport
Runtime:
15 min    -    Rating: n/A
Director:
Plot:
Matt Powers and Geoff Stoneback battle head-to-head in Atlanta, Georgia, in a team drift competition. Join them as they check out Formula Drift to see how the culture has grown and experience the event from a different perspective. Get ready for a fast, smoky, loud episode of Modified.

Description
Formula.E.2018-19.R13.New.York.City.ePrix.Full.Weekend.1080p.WEBRiP.H264-BaNHaMMER











Source:Youtube Quality:IPTV

Formula E Info



FormulaE:FePRIX:FormulaE2019:ePRIX

Media Info Taken From Race Two

[code]
Format                                   : Matroska
Format version                           : Version 4 / Version 2
File size                                : 4.37 GiB
Duration                                 : 2h 58mn
Overall bit rate                         : 3 515 Kbps
Encoded date                             : UTC 2019-07-15 04:58:55
Writing application                      : mkvmerge v34.0.0 ('Sight and Seen') 64-bit
Writing library                          : libebml v1.3.7 + libmatroska v1.5.0

Video
ID                                       : 1
Format                                   : AVC
Format/Info                              : Advanced Video Codec
Format profile                           : [email protected]
Format settings, CABAC                   : Yes
Format settings, ReFrames                : 1 frame
Codec ID                                 : V_MPEG4/ISO/AVC
Duration                                 : 2h 58mn
Bit rate                                 : 3 387 Kbps
Width                                    : 1 920 pixels
Height                                   : 1 080 pixels
Display aspect ratio                     : 16:9
Frame rate mode                          : Constant
Frame rate                               : 30.000 fps
Color space                              : YUV
Chroma subsampling                       : 4:2:0
Bit depth                                : 8 bits
Scan type                                : Progressive
Bits/(Pixel*Frame)                       : 0.054
Stream size                              : 4.21 GiB (96%)
Default                                  : Yes
Forced                                   : No
Color range                              : Limited
Color primaries                          : BT.709
Transfer characteristics                 : BT.709
Matrix coefficients                      : BT.709

Audio
ID                                       : 2
Format                                   : AAC
Format/Info                              : Advanced Audio Codec
Format profile                           : LC
Codec ID                                 : A_AAC
Duration                                 : 2h 58mn
Bit rate                                 : 125 Kbps
Channel(s)                               : 2 channels
Channel positions                        : Front: L R
Sampling rate                            : 48.0 KHz
Frame rate                               : 46.875 fps (1024 spf)
Compression mode                         : Lossy
Stream size                              : 160 MiB (4%)
Default                                  : Yes
Forced                                   : No
[/code]


Similar torrents

  User comments

No comments have been posted yet.


Post anonymous comment
:) :( :D :P :-) B) 8o :? 8) ;) :-* :-( :| O:-D :-@ :facepalm :o) brb :warn :help :bad :love :idea :bomb :!


CAPTCHA Image