Torrent details for "Titans S01E01 1080p WEB-DL x264 ESub [MW]"

Loading...
Torrent details
Cover
Download
Torrent rating (0 rated)
Controls:
Category:
Language:
English English
Total Size:
649.22 MB
Info Hash:
48ae2185e6b41e42c3fcfab54c45fe1d1ffea94c
Added By:
Added:  
13-10-2018 18:15
Views:
441
Health:
Seeds:
3
Leechers:
5
Completed:
729

File List : 
Title:
Titans (2018)
Genre:
Action, Adventure, Fantasy, Sci-Fi
Runtime:
45 min    -    Rating: 7
Director:
n/A
Plot:
Titans follows young heroes from across the DC Universe as they come of age and find belonging in a gritty take on the classic Teen Titans franchise. Dick Grayson and Rachel Roth, a special young girl possessed by a strange darkness, get embroiled in a conspiracy that could bring Hell on Earth. Joining them along the way are the hot-headed Starfire and loveable Beast Boy. Together they become a surrogate family and team of heroes.

Description




General
Format                                   : Matroska
Format version                           : Version 4 / Version 2
File size                                : 649 MiB
Duration                                 : 50 min 42 s
Overall bit rate                         : 1 790 kb/s

Video
ID                                       : 1
Format                                   : AVC
Format/Info                              : Advanced Video Codec
Format profile                           : [email protected]
Format settings                          : CABAC / 4 Ref Frames
Format settings, CABAC                   : Yes
Format settings, RefFrames               : 4 frames
Codec ID                                 : V_MPEG4/ISO/AVC
Duration                                 : 50 min 42 s
Bit rate                                 : 1 700 kb/s
Width                                    : 1 920 pixels
Height                                   : 960 pixels
Display aspect ratio                     : 2.000
Frame rate mode                          : Constant
Frame rate                               : 23.976 (24000/1001) FPS
Color space                              : YUV
Chroma subsampling                       : 4:2:0
Bit depth                                : 8 bits
Scan type                                : Progressive
Bits/(Pixel*Frame)                       : 0.038
Stream size                              : 602 MiB (93%)
Writing library                          : x264 core 155 r2901 7d0ff22
Default                                  : Yes
Forced                                   : No

Audio
ID                                       : 2
Format                                   : AAC
Format/Info                              : Advanced Audio Codec
Format profile                           : LC
Codec ID                                 : A_AAC-2
Duration                                 : 50 min 42 s
Bit rate                                 : 128 kb/s
Channel(s)                               : 2 channels
Channel positions                        : Front: L R
Sampling rate                            : 48.0 kHz
Frame rate                               : 46.875 FPS (1024 SPF)
Compression mode                         : Lossy
Stream size                              : 46.4 MiB (7%)
Language                                 : English
Default                                  : Yes
Forced                                   : No

Text
ID                                       : 3
Format                                   : UTF-8
Codec ID                                 : S_TEXT/UTF8
Codec ID/Info                            : UTF-8 Plain Text
Duration                                 : 48 min 25 s
Bit rate                                 : 36 b/s
Count of elements                        : 515
Stream size                              : 13.0 KiB (0%)
Title                                    : English (SDH)
Language                                 : English
Default                                  : No
Forced                                   : No


https://pichub.site/image/dkVu6
https://pichub.site/image/dkCly
https://pichub.site/image/dkwI4
https://pichub.site/image/dky8p
https://pichub.site/image/dkhqb


Similar torrents

  No similar torrents were found.

  User comments

Posted: 2018-10-19 21:11:14 (30Wks ago) Report

avatar
Reppoints: 165
thanks for another great quality program.  


Post anonymous comment
:) :( :D :P :-) B) 8o :? 8) ;) :-* :-( :| O:-D :-@ :o) brb :warn :help :bad :love :idea :bomb :!


CAPTCHA Image