Torrent details for "Eradu Kanasu 2017 Hindi Dubbed Movie HDRip x264 AC3"    Log in to bookmark

Loading...
Loading...
Torrent details
Please be advised this upload has ads cut or watermarked into the video. click here for more info
Cover
Download
Torrent rating (0 rated)
Controls:
Category:
Language:
Hindi Hindi
Total Size:
1.11 GB
Info Hash:
34eb8856c0f1b448629c3eb6ed70f5da819a61ba
Added By:
Added:  
23-06-2019 13:02 (edited 08-08-2019 02:17) by bigboy12:_moderator::_male::_sitelover::_sun::_turtle:
Views:
361
Health:
Seeds:
0
Leechers:
0
Completed:
10

File List (1) : 
Title:
Genre:
Action, Drama, Romance
Runtime:
n/A    -    Rating: n/A
Director:
Plot:
Know what this is about? Be the first one to add a plot.

Description


Eradu Kanasu 2017 Hindi Dubbed Movie HDRip x264 AC3


https://www.imdb.com/title/tt7561556/




[code]
General
Complete name                            : Eradu Kanasu 2017 Hindi Dubbed Movie HDRip x264 AC3.mp4
Format                                   : MPEG-4
Format profile                           : Base Media
Codec ID                                 : isom (isom/iso2/avc1/mp41)
File size                                : 1.11 GiB
Duration                                 : 2 h 5 min
Overall bit rate mode                    : Variable
Overall bit rate                         : 1 270 kb/s
Video
ID                                       : 1
Format                                   : AVC
Format/Info                              : Advanced Video Codec
Format profile                           : [email protected]
Format settings                          : CABAC / 2 Ref Frames
Format settings, CABAC                   : Yes
Format settings, RefFrames               : 2 frames
Codec ID                                 : avc1
Codec ID/Info                            : Advanced Video Coding
Duration                                 : 2 h 5 min
Duration_FirstFrame                      : -67 ms
Bit rate                                 : 1 103 kb/s
Width                                    : 1 280 pixels
Height                                   : 720 pixels
Display aspect ratio                     : 16:9
Frame rate mode                          : Variable
Frame rate                               : 29.970 FPS
Minimum frame rate                       : 9.990 FPS
Maximum frame rate                       : 29.970 FPS
Color space                              : YUV
Chroma subsampling                       : 4:2:0
Bit depth                                : 8 bits
Scan type                                : Progressive
Bits/(Pixel*Frame)                       : 0.040
Stream size                              : 986 MiB (87%)
Writing library                          : x264
Audio
ID                                       : 2
Format                                   : AAC
Format/Info                              : Advanced Audio Codec
Format profile                           : LC
Codec ID                                 : mp4a-40-2
Duration                                 : 2 h 5 min
Bit rate mode                            : Variable
Bit rate                                 : 165 kb/s
Channel(s)                               : 2 channels
Channel positions                        : Front: L R
Sampling rate                            : 48.0 kHz
Frame rate                               : 46.875 FPS (1024 SPF)
Compression mode                         : Lossy
Stream size                              : 148 MiB (13%)
[/code]









Similar torrents

  No similar torrents were found.

  User comments

Posted: 2019-06-23 16:01:28 (8Wks ago) Report

avatar
Reppoints: 1186
Has ads in it.


Post anonymous comment
:) :( :D :P :-) B) 8o :? 8) ;) :-* :-( :| O:-D :-@ :facepalm :o) brb :warn :help :bad :love :idea :bomb :!


CAPTCHA Image