Important notice

Due to site maintenance browser errors may occur.
Please bear with us or try one of our other official proxies.
For a complete list of official TorrentGalaxy links please visit https://proxygalaxy.pw

  Torrent details for "Badhaai Ho (2018) Hindi 720p WEB DL x264 AC3-Sun George"    Log in to bookmark

Loading...
Loading...
Torrent details
Cover
Download
Torrent rating (0 rated)
Controls:
Category:
Language:
Hindi Hindi
Total Size:
1.48 GB
Info Hash:
449751b4b353f122dfd5d5defc2feb15eca8e37a
Added By:
Added:  
15-12-2018 13:29
Views:
550
Health:
Seeds:
3
Leechers:
4
Completed:
21

File List (3) : 
Title:
Badhaai Ho (2018)
Genre:
Comedy, Drama
Runtime:
124 min    -    Rating: 8.7
Plot:
A man faces embarrassment in the society when he finds out his mother is pregnant

Description
Badhaai Ho (2018) Hindi 720p WEB DL x264 AC3-Sun George


https://www.imdb.com/title/tt7725596/







===================================================================

General
Format                                   : Matroska
Format version                           : Version 4 / Version 2
File size                                : 1.46 GiB
Duration                                 : 1 h 58 min
Overall bit rate                         : 1 760 kb/s
Movie name : Badhaai Ho (2018) Hindi 720p WEB DL x264 AC3-Sun George

===================================================================

Video
ID                                       : 1
Format                                   : AVC
Format/Info                              : Advanced Video Codec
Format profile                           : High@L4.1
Format settings                          : CABAC / 5 Ref Frames
Format settings, CABAC                   : Yes
Format settings, RefFrames               : 5 frames
Codec ID                                 : V_MPEG4/ISO/AVC
Duration                                 : 1 h 58 min
Bit rate                                 : 1 550 kb/s
Width                                    : 1 280 pixels
Height                                   : 720 pixels
Display aspect ratio                     : 16:9
Frame rate mode                          : Constant
Frame rate                               : 25.000 FPS
Color space                              : YUV
Chroma subsampling                       : 4:2:0
Bit depth                                : 8 bits
Scan type                                : Progressive
Bits/(Pixel*Frame)                       : 0.067
Stream size                              : 1.30 GiB (89%)
Title                                    : Sun George

===================================================================

Audio
ID                                       : 2
Format                                   : AC-3
Format/Info                              : Audio Coding 3
Codec ID                                 : A_AC3
Duration                                 : 1 h 58 min
Bit rate mode                            : Constant
Bit rate                                 : 192 kb/s
Channel(s)                               : 2 channels
Channel positions                        : Front: L R
Sampling rate                            : 48.0 kHz
Frame rate                               : 31.250 FPS (1536 SPF)
Bit depth                                : 16 bits
Compression mode                         : Lossy
Stream size                              : 163 MiB (11%)
Title                                    : Sun George
Language                                 : Hindi
Service kind                             : Complete Main
Default                                  : Yes
Forced                                   : No
















  User comments

No comments have been posted yet.


Post anonymous comment
:) :( :D :P :-) B) 8o :? 8) ;) :-* :-( :| O:-D :-@ :facepalm :o) brb :warn :help :bad :love :idea :bomb :!


CAPTCHA Image