Torrent details for "Boar 2017 1080p BluRay x264 DTS [MW]"    Log in to bookmark

Loading...
Loading...
Torrent details
Cover
Download
Torrent rating (0 rated)
Controls:
Category:
Language:
English English
Total Size:
2.47 GB
Info Hash:
23f0616ea8e807780eaca8995cd65ba2e2238844
Added By:
Added:  
21-12-2018 11:35
Views:
429
Health:
Seeds:
1
Leechers:
0
Completed:
182

File List (1) : 
Title:
Boar (2017)
Genre:
Horror
Runtime:
96 min    -    Rating: 6.8
Director:
Plot:
In the harsh, yet beautiful Australian outback lives a beast, an animal of staggering size, with a ruthless, driving need for blood and destruction. It cares for none, defends its territory with brutal force, and kills with a raw, animalistic savagery unlike any have seen before.

Description




General
Format                                   : Matroska
Format version                           : Version 4 / Version 2
File size                                : 2.47 GiB
Duration                                 : 1 h 36 min
Overall bit rate                         : 3 676 kb/s

Video
ID                                       : 1
Format                                   : AVC
Format/Info                              : Advanced Video Codec
Format profile                           : [email protected]
Format settings                          : CABAC / 4 Ref Frames
Format settings, CABAC                   : Yes
Format settings, RefFrames               : 4 frames
Codec ID                                 : V_MPEG4/ISO/AVC
Duration                                 : 1 h 36 min
Bit rate                                 : 3 000 kb/s
Width                                    : 1 920 pixels
Height                                   : 800 pixels
Display aspect ratio                     : 2.40:1
Frame rate mode                          : Constant
Frame rate                               : 23.976 (24000/1001) FPS
Color space                              : YUV
Chroma subsampling                       : 4:2:0
Bit depth                                : 8 bits
Scan type                                : Progressive
Bits/(Pixel*Frame)                       : 0.081
Stream size                              : 1.96 GiB (79%)
Writing library                          : x264 core 155 r2901 7d0ff22
Default                                  : Yes
Forced                                   : No

Audio
ID                                       : 2
Format                                   : DTS
Format/Info                              : Digital Theater Systems
Codec ID                                 : A_DTS
Duration                                 : 1 h 36 min
Bit rate mode                            : Constant
Bit rate                                 : 756 kb/s
Channel(s)                               : 6 channels
Channel positions                        : Front: L C R, Side: L R, LFE
Sampling rate                            : 48.0 kHz
Frame rate                               : 93.750 FPS (512 SPF)
Bit depth                                : 16 bits
Compression mode                         : Lossy
Stream size                              : 520 MiB (21%)
Language                                 : English
Default                                  : Yes
Forced                                   : No


Click To View Image

https://pichub.site/image/kYEs9
https://pichub.site/image/kY7au
https://pichub.site/image/kYV8R
https://pichub.site/image/kYc5s
https://pichub.site/image/kYkqB


Similar torrents

Name 
DL
Uploader
Size 
S/L 
Added
-
708.94 MB
683
[4/5]
18/11/18 09:58
-
700.26 MB
832
[2/0]
21/08/18 00:01
-
6.54 GB
564
[1/0]
21/08/18 13:28
-
1.36 GB
599
[0/3]
15/08/18 15:47

  User comments

No comments have been posted yet.


Post anonymous comment
:) :( :D :P :-) B) 8o :? 8) ;) :-* :-( :| O:-D :-@ :facepalm :o) brb :warn :help :bad :love :idea :bomb :!


CAPTCHA Image