Poll

Story of my life
Slumdog Millionaire
22%

Inception
45%

Titanic
21%

Freaky Friday
13%

Votes: 78


Log in or register
to cast your vote!

  Torrent details for "Leave No Trace 2018 1080p BluRay x264 DTS [MW]"

Loading...
Torrent details
Cover
Download
Torrent rating (0 rated)
Controls:
Category:
Language:
English English
Total Size:
2.86 GB
Info Hash:
09d1d485e529356dece2ed9674d10dda0b32328b
Added By:
Added:  
21-12-2018 11:36
Views:
475
Health:
Seeds:
76
Leechers:
3
Completed:
1,712

File List : 
Title:
Genre:
Drama
Runtime:
109 min    -    Rating: 7.7
Director:
Plot:
Will (Ben Foster) and his teenage daughter, Tom (Thomasin Harcourt McKenzie), have lived off the grid for years in the forests of Portland, Oregon. When their idyllic life is shattered, both are put into social services. After clashing with their new surroundings, Will and Tom set off on a harrowing journey back to their wild homeland. The film is directed by Debra Granik from a script adapted by Granik and Anne Rosellini.

Description




General
Format                                   : Matroska
Format version                           : Version 4 / Version 2
File size                                : 2.86 GiB
Duration                                 : 1 h 49 min
Overall bit rate                         : 3 753 kb/s

Video
ID                                       : 1
Format                                   : AVC
Format/Info                              : Advanced Video Codec
Format profile                           : [email protected]
Format settings                          : CABAC / 4 Ref Frames
Format settings, CABAC                   : Yes
Format settings, RefFrames               : 4 frames
Codec ID                                 : V_MPEG4/ISO/AVC
Duration                                 : 1 h 49 min
Bit rate                                 : 3 000 kb/s
Width                                    : 1 920 pixels
Height                                   : 1 036 pixels
Display aspect ratio                     : 1.85:1
Frame rate mode                          : Constant
Frame rate                               : 23.976 (24000/1001) FPS
Color space                              : YUV
Chroma subsampling                       : 4:2:0
Bit depth                                : 8 bits
Scan type                                : Progressive
Bits/(Pixel*Frame)                       : 0.063
Stream size                              : 2.28 GiB (80%)
Writing library                          : x264 core 155 r2901 7d0ff22
Default                                  : Yes
Forced                                   : No

Audio
ID                                       : 2
Format                                   : DTS
Format/Info                              : Digital Theater Systems
Codec ID                                 : A_DTS
Duration                                 : 1 h 49 min
Bit rate mode                            : Constant
Bit rate                                 : 756 kb/s
Channel(s)                               : 6 channels
Channel positions                        : Front: L C R, Side: L R, LFE
Sampling rate                            : 48.0 kHz
Frame rate                               : 93.750 FPS (512 SPF)
Bit depth                                : 16 bits
Compression mode                         : Lossy
Stream size                              : 590 MiB (20%)
Language                                 : English
Default                                  : Yes
Forced                                   : No

Text #1
ID                                       : 3
Format                                   : UTF-8
Codec ID                                 : S_TEXT/UTF8
Codec ID/Info                            : UTF-8 Plain Text
Duration                                 : 1 h 39 min
Bit rate                                 : 32 b/s
Count of elements                        : 816
Stream size                              : 23.8 KiB (0%)
Language                                 : English
Default                                  : No
Forced                                   : No

Text #2
ID                                       : 4
Format                                   : UTF-8
Codec ID                                 : S_TEXT/UTF8
Codec ID/Info                            : UTF-8 Plain Text
Duration                                 : 1 h 48 min
Bit rate                                 : 35 b/s
Count of elements                        : 969
Stream size                              : 27.7 KiB (0%)
Language                                 : English
Default                                  : No
Forced                                   : No

Menu
00:00:00.000                             : en:00:00:00.000
00:06:03.863                             : en:00:06:03.863
00:12:19.113                             : en:00:12:19.113
00:17:38.975                             : en:00:17:38.975
00:24:16.080                             : en:00:24:16.080
00:31:44.569                             : en:00:31:44.569
00:37:35.879                             : en:00:37:35.879
00:43:43.663                             : en:00:43:43.663
00:46:33.624                             : en:00:46:33.624
00:51:24.498                             : en:00:51:24.498
00:58:27.212                             : en:00:58:27.212
01:02:13.605                             : en:01:02:13.605
01:07:40.056                             : en:01:07:40.056
01:11:50.348                             : en:01:11:50.348
01:17:27.685                             : en:01:17:27.685
01:22:42.875                             : en:01:22:42.875
01:28:44.486                             : en:01:28:44.486
01:34:25.869                             : en:01:34:25.869
01:36:38.543                             : en:01:36:38.543
01:43:32.206                             : en:01:43:32.206


Click To View Image

https://pichub.site/image/kYtd4
https://pichub.site/image/kYBab
https://pichub.site/image/kYzup
https://pichub.site/image/kY83y
https://pichub.site/image/kYglV
https://pichub.site/image/kYK80


  User comments

No comments have been posted yet.


Post anonymous comment
:) :( :D :P :-) B) 8o :? 8) ;) :-* :-( :| O:-D :-@ :o) brb :warn :help :bad :love :idea :bomb :!


CAPTCHA Image