Torrent details for "Kin 2018 1080p BluRay x264 DTS [MW]"

Loading...
Torrent details
Cover
Download
Torrent rating (0 rated)
Controls:
Category:
Language:
English English
Total Size:
2.58 GB
Info Hash:
1c7a84bce32e80f00c4fcdcd034a22885dc7de25
Added By:
Added:  
21-12-2018 11:36
Views:
256
Health:
Seeds:
18
Leechers:
8
Completed:
4,385

File List : 
Title:
Kin (2018)
Genre:
Action, Sci-Fi
Runtime:
102 min    -    Rating: 5.7
Plot:
Co-directors Jonathan Baker and Josh Baker's Sci-Fi action thriller features James Franco, Zoe Kravitz, and Dennis Quaid. A young boy (Myles Truitt) finds a powerful otherworldly weapon, which he uses to save his older adoptive brother (Jack Reynor) from a crew of thugs. Before long, the two of them are also pursued by federal agents and mysterious mercenaries aiming to reclaim their asset.

Description




General
Format                                   : Matroska
Format version                           : Version 4 / Version 2
File size                                : 2.58 GiB
Duration                                 : 1 h 42 min
Overall bit rate                         : 3 587 kb/s

Video
ID                                       : 1
Format                                   : AVC
Format/Info                              : Advanced Video Codec
Format profile                           : [email protected]
Format settings                          : CABAC / 4 Ref Frames
Format settings, CABAC                   : Yes
Format settings, RefFrames               : 4 frames
Codec ID                                 : V_MPEG4/ISO/AVC
Duration                                 : 1 h 42 min
Bit rate                                 : 2 824 kb/s
Nominal bit rate                         : 3 000 kb/s
Width                                    : 1 920 pixels
Height                                   : 804 pixels
Display aspect ratio                     : 2.40:1
Frame rate mode                          : Constant
Frame rate                               : 23.976 (24000/1001) FPS
Color space                              : YUV
Chroma subsampling                       : 4:2:0
Bit depth                                : 8 bits
Scan type                                : Progressive
Bits/(Pixel*Frame)                       : 0.076
Stream size                              : 2.03 GiB (79%)
Writing library                          : x264 core 155 r2901 7d0ff22
Default                                  : Yes
Forced                                   : No

Audio
ID                                       : 2
Format                                   : DTS
Format/Info                              : Digital Theater Systems
Codec ID                                 : A_DTS
Duration                                 : 1 h 42 min
Bit rate mode                            : Constant
Bit rate                                 : 756 kb/s
Channel(s)                               : 6 channels
Channel positions                        : Front: L C R, Side: L R, LFE
Sampling rate                            : 48.0 kHz
Frame rate                               : 93.750 FPS (512 SPF)
Bit depth                                : 16 bits
Compression mode                         : Lossy
Stream size                              : 556 MiB (21%)
Language                                 : English
Default                                  : Yes
Forced                                   : No

Text #1
ID                                       : 3
Format                                   : UTF-8
Codec ID                                 : S_TEXT/UTF8
Codec ID/Info                            : UTF-8 Plain Text
Duration                                 : 1 h 34 min
Bit rate                                 : 40 b/s
Count of elements                        : 1027
Stream size                              : 28.3 KiB (0%)
Language                                 : English
Default                                  : No
Forced                                   : No


Click To View Image

https://pichub.site/image/kYGyN
https://pichub.site/image/kYNLD
https://pichub.site/image/kYUFZ
https://pichub.site/image/kYxdg
https://pichub.site/image/kY0GI
https://pichub.site/image/kYL3X


  User comments

No comments have been posted yet.


Post anonymous comment
:) :( :D :P :-) B) 8o :? 8) ;) :-* :-( :| O:-D :-@ :o) brb :warn :help :bad :love :idea :bomb :!


CAPTCHA Image