Torrent details for "Aquaman 2018 1080p HDTC x264 [MW]"

Loading...
Torrent details
Cover
Download
Torrent rating (0 rated)
Controls:
Category:
Language:
English English
Total Size:
2.06 GB
Info Hash:
80d1b16a51ebc831a40b54ab272364d6e67fd57b
Added By:
Added:  
21-12-2018 18:51
Views:
1,624
Health:
Seeds:
48
Leechers:
6
Completed:
16,876

File List : 
Title:
Aquaman (2018)
Genre:
Action, Adventure, Fantasy, Sci-Fi
Runtime:
143 min    -    Rating: 8.5
Director:
Plot:
Arthur Curry learns that he is the heir to the underwater kingdom of Atlantis, and must step forward to lead his people and be a hero to the world.

Description




General
Format                                   : Matroska
Format version                           : Version 4 / Version 2
File size                                : 2.06 GiB
Duration                                 : 2 h 12 min
Overall bit rate                         : 2 224 kb/s

Video
ID                                       : 1
Format                                   : AVC
Format/Info                              : Advanced Video Codec
Format profile                           : [email protected]
Format settings                          : CABAC / 4 Ref Frames
Format settings, CABAC                   : Yes
Format settings, RefFrames               : 4 frames
Codec ID                                 : V_MPEG4/ISO/AVC
Duration                                 : 2 h 12 min
Bit rate                                 : 2 000 kb/s
Width                                    : 1 920 pixels
Height                                   : 900 pixels
Display aspect ratio                     : 2.133
Frame rate mode                          : Constant
Frame rate                               : 29.970 (30000/1001) FPS
Color space                              : YUV
Chroma subsampling                       : 4:2:0
Bit depth                                : 8 bits
Scan type                                : Progressive
Bits/(Pixel*Frame)                       : 0.039
Stream size                              : 1.85 GiB (90%)
Writing library                          : x264 core 155 r2901 7d0ff22
Default                                  : Yes
Forced                                   : No

Audio
ID                                       : 2
Format                                   : AAC
Format/Info                              : Advanced Audio Codec
Format profile                           : LC
Codec ID                                 : A_AAC-2
Duration                                 : 2 h 12 min
Bit rate                                 : 224 kb/s
Channel(s)                               : 2 channels
Channel positions                        : Front: L R
Sampling rate                            : 48.0 kHz
Frame rate                               : 46.875 FPS (1024 SPF)
Compression mode                         : Lossy
Stream size                              : 213 MiB (10%)
Language                                 : English
Default                                  : Yes
Forced                                   : No


Click To View Image

https://pichub.site/image/kM3Y0
https://pichub.site/image/kMnnb
https://pichub.site/image/kMZzV
https://pichub.site/image/kM12T
https://pichub.site/image/kMFxZ
https://pichub.site/image/kM9jN


Similar torrents

Name 
DL
Uploader
Size 
S/L 
Added
1.45 GB
10,828
[1,783/165]
23/01/19 23:24
-
2.99 GB
11,207
[536/52]
18/12/18 14:07
-
1.13 GB
2,048
[227/36]
03/01/19 09:20
-
1.40 GB
15,472
[88/22]
23/12/18 03:48

  User comments

Guest-5920
Posted: 2018-12-22 03:35:09 (8Wks ago) Report
Guest user
avatar
Reppoints: -100
this has adverts during the movie .. to a gambling website .. ruins the fucking movie do not bother with this ... wasted 2gb for this shit


Post anonymous comment
:) :( :D :P :-) B) 8o :? 8) ;) :-* :-( :| O:-D :-@ :o) brb :warn :help :bad :love :idea :bomb :!


CAPTCHA Image